The Marvels (2023)

PG-13 | 1h 45min | Action, Adventure, Fantasy

Carol Danvers gets her powers entangled with those of Kamala Khan and Monica Rambeau, forcing them to work together to save the universe.

Watch trailer

Media information

General
Format : Matroska
Format version : Version 4
File size : 1.65 GiB
Duration : 1 h 44 min
Overall bit rate : 2 263 kb/s
Frame rate : 24.000 FPS
Movie name : The.Marvels.2023.1080p.10bit.WEBRip.6CH.x265.HEVC

Video
ID : 1
Format : HEVC
Format/Info : High Efficiency Video Coding
Format profile : Main 10@L4@Main
Codec ID : V_MPEGH/ISO/HEVC
Duration : 1 h 44 min
Bit rate : 2 054 kb/s
Width : 1 920 pixels
Height : 808 pixels
Display aspect ratio : 2.39:1
Frame rate mode : Constant
Frame rate : 24.000 FPS
Color space : YUV
Chroma subsampling : 4:2:0
Bit depth : 10 bits
Bits/(Pixel*Frame) : 0.055
Stream size : 1.50 GiB (91%)
Default : Yes
Forced : No
Color range : Limited
Color primaries : BT.709
Transfer characteristics : BT.709
Matrix coefficients : BT.709

Audio
ID : 2
Format : AAC LC SBR
Commercial name : HE-AAC
Format settings : Explicit
Codec ID : A_AAC-2
Duration : 1 h 44 min
Bit rate : 207 kb/s
Channel(s) : 6 channels
Channel layout : C L R Ls Rs LFE
Sampling rate : 48.0 kHz
Frame rate : 23.438 FPS (2048 SPF)
Compression mode : Lossy
Delay relative to video : 23 ms
Stream size : 155 MiB (9%)
Language : English
Default : Yes
Forced : No

Text #1
ID : 3
Format : UTF-8
Codec ID : S_TEXT/UTF8
Codec ID/Info : UTF-8 Plain Text
Duration : 1 h 35 min
Bit rate : 55 b/s
Frame rate : 0.211 FPS
Count of elements : 1207
Stream size : 38.5 KiB (0%)
Language : English
Default : No
Forced : No

Text #2
ID : 4
Format : UTF-8
Codec ID : S_TEXT/UTF8
Codec ID/Info : UTF-8 Plain Text
Duration : 1 min 29 s
Bit rate : 4 b/s
Frame rate : 0.022 FPS
Count of elements : 2
Stream size : 52.0 Bytes (0%)
Title : Forced
Language : English
Default : No
Forced : Yes

Text #3
ID : 5
Format : UTF-8
Codec ID : S_TEXT/UTF8
Codec ID/Info : UTF-8 Plain Text
Duration : 1 h 44 min
Bit rate : 63 b/s
Frame rate : 0.285 FPS
Count of elements : 1790
Stream size : 48.8 KiB (0%)
Title : SDH
Language : English
Default : Yes
Forced : No

Text #4
ID : 6
Format : UTF-8
Codec ID : S_TEXT/UTF8
Codec ID/Info : UTF-8 Plain Text
Duration : 1 h 35 min
Bit rate : 52 b/s
Frame rate : 0.214 FPS
Count of elements : 1222
Stream size : 36.8 KiB (0%)
Title : Latin American
Language : Spanish (Latin America)
Default : No
Forced : No

Text #5
ID : 7
Format : UTF-8
Codec ID : S_TEXT/UTF8
Codec ID/Info : UTF-8 Plain Text
Duration : 1 h 42 min
Bit rate : 55 b/s
Frame rate : 0.201 FPS
Count of elements : 1232
Stream size : 41.7 KiB (0%)
Title : Canadian
Language : French (CA)
Default : No
Forced : No

[collapse]
Download Link(s)

Download

Direct download files get automatically deleted after a month or so. Posted on : 01/15/2024

[collapse]
Magnet Link

Magnet

The.Marvels.2023.1080p.WEB-DL.DDP5.1.Atmos.H264-FLUX-7.7 GB

[collapse]

Media information

General
Format : Matroska
Format version : Version 4
File size : 862 MiB
Duration : 1 h 44 min
Overall bit rate : 1 152 kb/s
Frame rate : 24.000 FPS
Movie name : The.Marvels.2023.720p.10bit.WEBRip.6CH.x265.HEVC

Video
ID : 1
Format : HEVC
Format/Info : High Efficiency Video Coding
Format profile : Main [email protected]@Main
Codec ID : V_MPEGH/ISO/HEVC
Duration : 1 h 44 min
Bit rate : 942 kb/s
Width : 1 280 pixels
Height : 536 pixels
Display aspect ratio : 2.39:1
Frame rate mode : Constant
Frame rate : 24.000 FPS
Color space : YUV
Chroma subsampling : 4:2:0
Bit depth : 10 bits
Bits/(Pixel*Frame) : 0.057
Stream size : 705 MiB (82%)
Default : Yes
Forced : No
Color range : Limited
Color primaries : BT.709
Transfer characteristics : BT.709
Matrix coefficients : BT.709

Audio
ID : 2
Format : AAC LC SBR
Commercial name : HE-AAC
Format settings : Explicit
Codec ID : A_AAC-2
Duration : 1 h 44 min
Bit rate : 207 kb/s
Channel(s) : 6 channels
Channel layout : C L R Ls Rs LFE
Sampling rate : 48.0 kHz
Frame rate : 23.438 FPS (2048 SPF)
Compression mode : Lossy
Delay relative to video : 23 ms
Stream size : 155 MiB (18%)
Language : English
Default : Yes
Forced : No

Text #1
ID : 3
Format : UTF-8
Codec ID : S_TEXT/UTF8
Codec ID/Info : UTF-8 Plain Text
Duration : 1 h 35 min
Bit rate : 55 b/s
Frame rate : 0.211 FPS
Count of elements : 1207
Stream size : 38.5 KiB (0%)
Language : English
Default : No
Forced : No

Text #2
ID : 4
Format : UTF-8
Codec ID : S_TEXT/UTF8
Codec ID/Info : UTF-8 Plain Text
Duration : 1 min 29 s
Bit rate : 4 b/s
Frame rate : 0.022 FPS
Count of elements : 2
Stream size : 52.0 Bytes (0%)
Title : Forced
Language : English
Default : No
Forced : Yes

Text #3
ID : 5
Format : UTF-8
Codec ID : S_TEXT/UTF8
Codec ID/Info : UTF-8 Plain Text
Duration : 1 h 44 min
Bit rate : 63 b/s
Frame rate : 0.285 FPS
Count of elements : 1790
Stream size : 48.8 KiB (0%)
Title : SDH
Language : English
Default : Yes
Forced : No

Text #4
ID : 6
Format : UTF-8
Codec ID : S_TEXT/UTF8
Codec ID/Info : UTF-8 Plain Text
Duration : 1 h 35 min
Bit rate : 52 b/s
Frame rate : 0.214 FPS
Count of elements : 1222
Stream size : 36.8 KiB (0%)
Title : Latin American
Language : Spanish (Latin America)
Default : No
Forced : No

Text #5
ID : 7
Format : UTF-8
Codec ID : S_TEXT/UTF8
Codec ID/Info : UTF-8 Plain Text
Duration : 1 h 42 min
Bit rate : 55 b/s
Frame rate : 0.201 FPS
Count of elements : 1232
Stream size : 41.7 KiB (0%)
Title : Canadian
Language : French (CA)
Default : No
Forced : No

[collapse]
Download Link(s)

Download

Direct download files get automatically deleted after a month or so. Posted on : 01/15/2024

[collapse]
Magnet Link

Magnet

The.Marvels.2023.1080p.WEB-DL.DDP5.1.Atmos.H264-FLUX-7.7 GB

[collapse]

You may also like...

error: nah :p~