The Lavender Hill Mob (1951)

Approved | 1h 18min | Comedy, Crime

A meek bank clerk who oversees the shipment of bullion joins with an eccentric neighbor to steal gold bars and smuggle them out of the country as miniature Eiffel Towers.

Watch trailer

Media information

General
Format : Matroska
Format version : Version 4
File size : 1.38 GiB
Duration : 1 h 21 min
Overall bit rate : 2 423 kb/s
Frame rate : 24.000 FPS
Movie name : The.Lavender.Hill.Mob.1951.REMASTERED.1080p.10bit.BluRay.2CH.x265.HEVC

Video
ID : 1
Format : HEVC
Format/Info : High Efficiency Video Coding
Format profile : Main 10@L4@Main
Codec ID : V_MPEGH/ISO/HEVC
Duration : 1 h 21 min
Bit rate : 2 184 kb/s
Width : 1 480 pixels
Height : 1 080 pixels
Display aspect ratio : 1.370
Frame rate mode : Constant
Frame rate : 24.000 FPS
Color space : YUV
Chroma subsampling : 4:2:0 (Type 0)
Bit depth : 10 bits
Bits/(Pixel*Frame) : 0.057
Stream size : 1.24 GiB (90%)
Default : Yes
Forced : No
Color range : Limited
Matrix coefficients : BT.709

Audio
ID : 2
Format : AAC LC
Codec ID : A_AAC-2
Duration : 1 h 21 min
Bit rate : 237 kb/s
Channel(s) : 2 channels
Channel layout : L R
Sampling rate : 48.0 kHz
Frame rate : 46.875 FPS (1024 SPF)
Compression mode : Lossy
Stream size : 138 MiB (10%)
Language : English
Default : Yes
Forced : No

Text
ID : 3
Format : UTF-8
Codec ID : S_TEXT/UTF8
Codec ID/Info : UTF-8 Plain Text
Duration : 1 h 17 min
Bit rate : 71 b/s
Frame rate : 0.239 FPS
Count of elements : 1116
Stream size : 40.7 KiB (0%)
Language : English
Default : Yes
Forced : No

[collapse]
Download Link(s)

Download

Direct download files get automatically deleted after a month or so. Posted on : 05/12/2024

[collapse]

Media information

General
Format : Matroska
Format version : Version 4
File size : 755 MiB
Duration : 1 h 21 min
Overall bit rate : 1 295 kb/s
Frame rate : 24.000 FPS
Movie name : The.Lavender.Hill.Mob.1951.REMASTERED.720p.10bit.BluRay.2CH.x265.HEVC

Video
ID : 1
Format : HEVC
Format/Info : High Efficiency Video Coding
Format profile : Main 10@L4@Main
Codec ID : V_MPEGH/ISO/HEVC
Duration : 1 h 21 min
Bit rate : 1 069 kb/s
Width : 1 280 pixels
Height : 936 pixels
Display aspect ratio : 1.370
Frame rate mode : Constant
Frame rate : 24.000 FPS
Color space : YUV
Chroma subsampling : 4:2:0 (Type 0)
Bit depth : 10 bits
Bits/(Pixel*Frame) : 0.037
Stream size : 623 MiB (83%)
Default : Yes
Forced : No
Color range : Limited
Matrix coefficients : BT.709

Audio
ID : 2
Format : AAC LC
Codec ID : A_AAC-2
Duration : 1 h 21 min
Bit rate : 224 kb/s
Channel(s) : 2 channels
Channel layout : L R
Sampling rate : 48.0 kHz
Frame rate : 46.875 FPS (1024 SPF)
Compression mode : Lossy
Stream size : 130 MiB (17%)
Language : English
Default : Yes
Forced : No

Text
ID : 3
Format : UTF-8
Codec ID : S_TEXT/UTF8
Codec ID/Info : UTF-8 Plain Text
Duration : 1 h 17 min
Bit rate : 71 b/s
Frame rate : 0.239 FPS
Count of elements : 1116
Stream size : 40.7 KiB (0%)
Language : English
Default : Yes
Forced : No

[collapse]
Download Link(s)

Download

Direct download files get automatically deleted after a month or so. Posted on : 05/12/2024

[collapse]

Magnet Link

Magnet

The.Lavender.Hill.Mob.1951.1080p.BluRay.x264-HANDJOB-6.28 GB

[collapse]

You may also like...

error: nah :p~