The Last Castle (2001)

R | 2h 11min | Action, Drama, Thriller | 19 October 2001 (USA)

A court-martialed General rallies together twelve hundred inmates to rise against a corrupt and sadistic warden.

Watch trailer

Media information

General
Format : Matroska
Format version : Version 4
File size : 1.88 GiB
Duration : 2 h 11 min
Overall bit rate : 2 055 kb/s
Movie name : The.Last.Castle.2001.1080p.10bit.BluRay.6CH.x265.HEVC

Video
ID : 1
Format : HEVC
Format/Info : High Efficiency Video Coding
Format profile : Main 10@L4@Main
Codec ID : V_MPEGH/ISO/HEVC
Duration : 2 h 11 min
Bit rate : 1 764 kb/s
Width : 1 920 pixels
Height : 1 080 pixels
Display aspect ratio : 16:9
Frame rate mode : Variable
Frame rate : 23.976 FPS
Color space : YUV
Chroma subsampling : 4:2:0 (Type 0)
Bit depth : 10 bits
Bits/(Pixel*Frame) : 0.035
Stream size : 1.62 GiB (86%)
Default : Yes
Forced : No
Color range : Limited

Audio
ID : 2
Format : AAC LC
Codec ID : A_AAC-2
Duration : 2 h 11 min
Bit rate : 288 kb/s
Channel(s) : 6 channels
Channel layout : L R C Cb Lb Rb
Sampling rate : 48.0 kHz
Frame rate : 46.875 FPS (1024 SPF)
Compression mode : Lossy
Stream size : 270 MiB (14%)
Language : English
Default : Yes
Forced : No

Text
ID : 3
Format : UTF-8
Codec ID : S_TEXT/UTF8
Codec ID/Info : UTF-8 Plain Text
Duration : 2 h 4 min
Bit rate : 55 b/s
Count of elements : 1527
Stream size : 50.9 KiB (0%)
Language : English
Default : Yes
Forced : No

[collapse]
Download Link(s)

Download

Direct download files get automatically deleted after a month or so. Posted on : 05/29/2021

[collapse]
Magnet Link

Magnet

The.Last.Castle.2001.1080p.BluRay.REMUX.AVC.DTS-HD.MA.5.1-FGT-35.42 GB

[collapse]

Media information

General
Format : Matroska
Format version : Version 4
File size : 946 MiB
Duration : 2 h 11 min
Overall bit rate : 1 008 kb/s
Movie name : The.Last.Castle.2001.720p.10bit.BluRay.6CH.x265.HEVC

Video
ID : 1
Format : HEVC
Format/Info : High Efficiency Video Coding
Format profile : Main [email protected]@Main
Codec ID : V_MPEGH/ISO/HEVC
Duration : 2 h 11 min
Bit rate : 814 kb/s
Width : 1 280 pixels
Height : 720 pixels
Display aspect ratio : 16:9
Frame rate mode : Variable
Frame rate : 23.976 FPS
Color space : YUV
Chroma subsampling : 4:2:0 (Type 0)
Bit depth : 10 bits
Bits/(Pixel*Frame) : 0.037
Stream size : 764 MiB (81%)
Default : Yes
Forced : No
Color range : Limited

Audio
ID : 2
Format : AAC LC
Codec ID : A_AAC-2
Duration : 2 h 11 min
Bit rate : 192 kb/s
Channel(s) : 6 channels
Channel layout : L R C Cb Lb Rb
Sampling rate : 48.0 kHz
Frame rate : 46.875 FPS (1024 SPF)
Compression mode : Lossy
Stream size : 180 MiB (19%)
Language : English
Default : Yes
Forced : No

Text
ID : 3
Format : UTF-8
Codec ID : S_TEXT/UTF8
Codec ID/Info : UTF-8 Plain Text
Duration : 2 h 4 min
Bit rate : 55 b/s
Count of elements : 1527
Stream size : 50.9 KiB (0%)
Language : English
Default : Yes
Forced : No

[collapse]
Download Link(s)

Download

Direct download files get automatically deleted after a month or so. Posted on : 05/29/2021

[collapse]
Magnet Link

Magnet

The.Last.Castle.2001.1080p.BluRay.REMUX.AVC.DTS-HD.MA.5.1-FGT-35.42 GB

[collapse]

You may also like...

error: nah :p~