The Immortal (2019)

L’immortale (original title)|1h 56min | Crime, Drama | 5 December 2019 (Italy)

Ciro’s body is slowly sinking in the Gulf of Naples. As he plunges into darkness, memories emerge.

Watch trailer

Media information

General
Format : Matroska
Format version : Version 4
File size : 694 MiB
Duration : 1 h 55 min
Overall bit rate : 840 kb/s
Movie name : The.Immortal.2019.ITALIAN.720p.10bit.BluRay.2CH.x265.HEVC

Video
ID : 1
Format : HEVC
Format/Info : High Efficiency Video Coding
Format profile : Main [email protected]@Main
Codec ID : V_MPEGH/ISO/HEVC
Duration : 1 h 55 min
Bit rate : 758 kb/s
Width : 1 280 pixels
Height : 720 pixels
Display aspect ratio : 2.40:1
Frame rate mode : Constant
Frame rate : 24.000 FPS
Color space : YUV
Chroma subsampling : 4:2:0
Bit depth : 10 bits
Bits/(Pixel*Frame) : 0.034
Stream size : 626 MiB (90%)
Default : Yes
Forced : No
Color range : Limited
Color primaries : BT.709
Transfer characteristics : BT.709
Matrix coefficients : BT.709

Audio
ID : 2
Format : AAC LC
Codec ID : A_AAC-2
Duration : 1 h 55 min
Bit rate : 80.4 kb/s
Channel(s) : 2 channels
Channel layout : L R
Sampling rate : 48.0 kHz
Frame rate : 46.875 FPS (1024 SPF)
Compression mode : Lossy
Delay relative to video : -21 ms
Stream size : 66.4 MiB (10%)
Language : Italian
Default : Yes
Forced : No

Text
ID : 3
Format : ASS
Codec ID : S_TEXT/ASS
Duration : 1 h 48 min
Bit rate : 43 b/s
Count of elements : 720
Compression mode : Lossless
Stream size : 34.8 KiB (0%)
Language : English
Default : Yes
Forced : Yes

[collapse]
Download Link(s)

Download

Direct download files get automatically deleted after a month or so. Posted on : 03/18/2020

[collapse]
Magnet Link

Magnet

The.Immortal.2019.ITALIAN.1080p.BluRay.x264.DTS-FGT-10.49 GB

[collapse]

You may also like...

error: nah :p~