The Iceman (2012)

R | 1h 46min | Biography, Crime, Drama | 2 May 2013 (Lebanon)

The story of Richard Kuklinski, the notorious contract killer and family man. When finally arrested in 1986, neither his wife nor daughters had any clue about his real profession.

Watch trailer

Media information

General
Format : Matroska
Format version : Version 4
File size : 1.55 GiB
Duration : 1 h 45 min
Overall bit rate : 2 104 kb/s
Movie name : The.Iceman.2012.1080p.10bit.BluRay.6CH.x265.HEVC

Video
ID : 1
Format : HEVC
Format/Info : High Efficiency Video Coding
Format profile : Main [email protected]@Main
Codec ID : V_MPEGH/ISO/HEVC
Duration : 1 h 45 min
Bit rate : 1 813 kb/s
Width : 1 920 pixels
Height : 1 080 pixels
Display aspect ratio : 16:9
Frame rate mode : Variable
Frame rate : 23.976 FPS
Color space : YUV
Chroma subsampling : 4:2:0 (Type 0)
Bit depth : 10 bits
Bits/(Pixel*Frame) : 0.036
Stream size : 1.34 GiB (86%)
Default : Yes
Forced : No
Color range : Limited

Audio
ID : 2
Format : AAC LC
Codec ID : A_AAC-2
Duration : 1 h 45 min
Bit rate : 288 kb/s
Channel(s) : 6 channels
Channel layout : L R C Cb Lb Rb
Sampling rate : 48.0 kHz
Frame rate : 46.875 FPS (1024 SPF)
Compression mode : Lossy
Stream size : 218 MiB (14%)
Language : English
Default : Yes
Forced : No

Text
ID : 3
Format : UTF-8
Codec ID : S_TEXT/UTF8
Codec ID/Info : UTF-8 Plain Text
Duration : 1 h 42 min
Bit rate : 64 b/s
Count of elements : 1645
Stream size : 48.4 KiB (0%)
Language : English
Default : Yes
Forced : No

[collapse]
Download Link(s)

Download

Direct download files get automatically deleted after a month or so. Posted on : 06/18/2021

[collapse]
Magnet Link

Magnet

The.Iceman.2012.LIMITED.1080p.BluRay.x264-GECKOS-6.53 GB

[collapse]

Media information

General
Format : Matroska
Format version : Version 4
File size : 740 MiB
Duration : 1 h 45 min
Overall bit rate : 982 kb/s
Movie name : The.Iceman.2012.720p.10bit.BluRay.6CH.x265.HEVC

Video
ID : 1
Format : HEVC
Format/Info : High Efficiency Video Coding
Format profile : Main [email protected]@Main
Codec ID : V_MPEGH/ISO/HEVC
Duration : 1 h 45 min
Bit rate : 787 kb/s
Width : 1 280 pixels
Height : 720 pixels
Display aspect ratio : 16:9
Frame rate mode : Variable
Frame rate : 23.976 FPS
Color space : YUV
Chroma subsampling : 4:2:0 (Type 0)
Bit depth : 10 bits
Bits/(Pixel*Frame) : 0.036
Stream size : 594 MiB (80%)
Default : Yes
Forced : No
Color range : Limited

Audio
ID : 2
Format : AAC LC
Codec ID : A_AAC-2
Duration : 1 h 45 min
Bit rate : 192 kb/s
Channel(s) : 6 channels
Channel layout : L R C Cb Lb Rb
Sampling rate : 48.0 kHz
Frame rate : 46.875 FPS (1024 SPF)
Compression mode : Lossy
Stream size : 145 MiB (20%)
Language : English
Default : Yes
Forced : No

Text
ID : 3
Format : UTF-8
Codec ID : S_TEXT/UTF8
Codec ID/Info : UTF-8 Plain Text
Duration : 1 h 42 min
Bit rate : 64 b/s
Count of elements : 1645
Stream size : 48.4 KiB (0%)
Language : English
Default : Yes
Forced : No

[collapse]
Download Link(s)

Download

Direct download files get automatically deleted after a month or so. Posted on : 06/18/2021

[collapse]
Magnet Link

Magnet

The.Iceman.2012.LIMITED.1080p.BluRay.x264-GECKOS-6.53 GB

[collapse]

You may also like...

error: nah :p~