The Hunt (2012)

Original title: Jagten | R | 1h 55min | Drama

A teacher lives a lonely life, all the while struggling over his son’s custody. His life slowly gets better as he finds love and receives good news from his son, but his new luck is about to be brutally shattered by an innocent little lie.

Watch trailer

Media information

General
Format : Matroska
Format version : Version 4
File size : 2.16 GiB
Duration : 1 h 55 min
Overall bit rate : 2 680 kb/s
Frame rate : 23.976 FPS
Movie name : The.Hunt.2012.DANISH.1080p.10bit.BluRay.6CH.x265.HEVC

Video
ID : 1
Format : HEVC
Format/Info : High Efficiency Video Coding
Format profile : Main 10@L4@Main
Codec ID : V_MPEGH/ISO/HEVC
Duration : 1 h 55 min
Bit rate : 2 294 kb/s
Width : 1 920 pixels
Height : 816 pixels
Display aspect ratio : 2.35:1
Frame rate mode : Constant
Frame rate : 23.976 (24000/1001) FPS
Color space : YUV
Chroma subsampling : 4:2:0 (Type 0)
Bit depth : 10 bits
Bits/(Pixel*Frame) : 0.061
Stream size : 1.85 GiB (86%)
Default : Yes
Forced : No
Color range : Limited

Audio
ID : 2
Format : AAC LC
Codec ID : A_AAC-2
Duration : 1 h 55 min
Bit rate : 384 kb/s
Channel(s) : 6 channels
Channel layout : C L R Ls Rs LFE
Sampling rate : 48.0 kHz
Frame rate : 46.875 FPS (1024 SPF)
Compression mode : Lossy
Delay relative to video : 20 ms
Stream size : 317 MiB (14%)
Language : Danish
Default : Yes
Forced : No

Text
ID : 3
Format : UTF-8
Codec ID : S_TEXT/UTF8
Codec ID/Info : UTF-8 Plain Text
Duration : 1 h 52 min
Bit rate : 69 b/s
Frame rate : 0.248 FPS
Count of elements : 1683
Stream size : 57.3 KiB (0%)
Language : English
Default : Yes
Forced : No

[collapse]
Download Link(s)

Download

Direct download files get automatically deleted after a month or so. Posted on : 02/27/2024

[collapse]
Magnet Link

Magnet

The.Hunt.2012.Extras.1080p.BluRay.x265.HEVC.10bit.AAC.5.1.afm72.QxR-4.5 GB

[collapse]

Media information

General
Format : Matroska
Format version : Version 4
File size : 1.12 GiB
Duration : 1 h 55 min
Overall bit rate : 1 392 kb/s
Frame rate : 23.976 FPS
Movie name : The.Hunt.2012.DANISH.720p.10bit.BluRay.6CH.x265.HEVC

Video
ID : 1
Format : HEVC
Format/Info : High Efficiency Video Coding
Format profile : Main [email protected]@Main
Codec ID : V_MPEGH/ISO/HEVC
Duration : 1 h 55 min
Bit rate : 1 102 kb/s
Width : 1 280 pixels
Height : 544 pixels
Display aspect ratio : 2.35:1
Frame rate mode : Constant
Frame rate : 23.976 (24000/1001) FPS
Color space : YUV
Chroma subsampling : 4:2:0 (Type 0)
Bit depth : 10 bits
Bits/(Pixel*Frame) : 0.066
Stream size : 911 MiB (79%)
Default : Yes
Forced : No
Color range : Limited

Audio
ID : 2
Format : AAC LC
Codec ID : A_AAC-2
Duration : 1 h 55 min
Bit rate : 288 kb/s
Channel(s) : 6 channels
Channel layout : C L R Ls Rs LFE
Sampling rate : 48.0 kHz
Frame rate : 46.875 FPS (1024 SPF)
Compression mode : Lossy
Delay relative to video : 20 ms
Stream size : 238 MiB (21%)
Language : Danish
Default : Yes
Forced : No

Text
ID : 3
Format : UTF-8
Codec ID : S_TEXT/UTF8
Codec ID/Info : UTF-8 Plain Text
Duration : 1 h 52 min
Bit rate : 69 b/s
Frame rate : 0.248 FPS
Count of elements : 1683
Stream size : 57.3 KiB (0%)
Language : English
Default : Yes
Forced : No

[collapse]
Download Link(s)

Download

Direct download files get automatically deleted after a month or so. Posted on : 02/27/2024

[collapse]
Magnet Link

Magnet

The.Hunt.2012.Extras.1080p.BluRay.x265.HEVC.10bit.AAC.5.1.afm72.QxR-4.5 GB

[collapse]

You may also like...

error: nah :p~