The Greatest Beer Run Ever (2022)

R | 2h 6min | Adventure, Comedy, Drama

A man’s story of leaving New York in 1967 to bring beer to his childhood buddies in the Army while they are fighting in Vietnam.

Watch trailer

Media information

General
Format : Matroska
Format version : Version 4
File size : 1.92 GiB
Duration : 2 h 6 min
Overall bit rate : 2 168 kb/s
Movie name : The.Greatest.Beer.Run.Ever.2022.1080p.10bit.WEBRip.6CH.x265.HEVC

Video
ID : 1
Format : HEVC
Format/Info : High Efficiency Video Coding
Format profile : Main [email protected]@Main
Codec ID : V_MPEGH/ISO/HEVC
Duration : 2 h 6 min
Bit rate : 1 958 kb/s
Width : 1 920 pixels
Height : 960 pixels
Display aspect ratio : 2.000
Frame rate mode : Constant
Frame rate : 23.976 (24000/1001) FPS
Color space : YUV
Chroma subsampling : 4:2:0
Bit depth : 10 bits
Bits/(Pixel*Frame) : 0.044
Stream size : 1.74 GiB (90%)
Default : Yes
Forced : No
Color range : Limited
Color primaries : BT.709
Transfer characteristics : BT.709
Matrix coefficients : BT.709

Audio
ID : 2
Format : AAC LC SBR
Commercial name : HE-AAC
Format settings : Explicit
Codec ID : A_AAC-2
Duration : 2 h 6 min
Bit rate : 202 kb/s
Channel(s) : 6 channels
Channel layout : C L R Ls Rs LFE
Sampling rate : 48.0 kHz
Frame rate : 23.438 FPS (2048 SPF)
Compression mode : Lossy
Delay relative to video : 23 ms
Stream size : 183 MiB (9%)
Language : English
Default : Yes
Forced : No

Text #1
ID : 3
Format : UTF-8
Codec ID : S_TEXT/UTF8
Codec ID/Info : UTF-8 Plain Text
Duration : 1 h 57 min
Bit rate : 66 b/s
Frame rate : 0.222 FPS
Count of elements : 1566
Stream size : 57.3 KiB (0%)
Language : English
Default : No
Forced : No

Text #2
ID : 4
Format : UTF-8
Codec ID : S_TEXT/UTF8
Codec ID/Info : UTF-8 Plain Text
Duration : 1 h 57 min
Bit rate : 73 b/s
Frame rate : 0.248 FPS
Count of elements : 1751
Stream size : 63.8 KiB (0%)
Title : SDH
Language : English
Default : Yes
Forced : No

Text #3
ID : 5
Format : UTF-8
Codec ID : S_TEXT/UTF8
Codec ID/Info : UTF-8 Plain Text
Duration : 2 h 6 min
Bit rate : 97 b/s
Frame rate : 0.213 FPS
Count of elements : 1618
Stream size : 89.8 KiB (0%)
Language : Arabic
Default : No
Forced : No

Text #4
ID : 6
Format : UTF-8
Codec ID : S_TEXT/UTF8
Codec ID/Info : UTF-8 Plain Text
Duration : 2 h 6 min
Bit rate : 86 b/s
Frame rate : 0.193 FPS
Count of elements : 1466
Stream size : 80.1 KiB (0%)
Language : Bulgarian
Default : No
Forced : No

Text #5
ID : 7
Format : UTF-8
Codec ID : S_TEXT/UTF8
Codec ID/Info : UTF-8 Plain Text
Duration : 2 h 6 min
Bit rate : 53 b/s
Frame rate : 0.200 FPS
Count of elements : 1519
Stream size : 49.2 KiB (0%)
Language : Czech
Default : No
Forced : No

Text #6
ID : 8
Format : UTF-8
Codec ID : S_TEXT/UTF8
Codec ID/Info : UTF-8 Plain Text
Duration : 2 h 6 min
Bit rate : 54 b/s
Frame rate : 0.198 FPS
Count of elements : 1505
Stream size : 50.4 KiB (0%)
Language : Danish
Default : No
Forced : No

Text #7
ID : 9
Format : UTF-8
Codec ID : S_TEXT/UTF8
Codec ID/Info : UTF-8 Plain Text
Duration : 2 h 6 min
Bit rate : 62 b/s
Frame rate : 0.206 FPS
Count of elements : 1560
Stream size : 57.5 KiB (0%)
Language : German
Default : No
Forced : No

Text #8
ID : 10
Format : UTF-8
Codec ID : S_TEXT/UTF8
Codec ID/Info : UTF-8 Plain Text
Duration : 2 h 6 min
Bit rate : 100 b/s
Frame rate : 0.198 FPS
Count of elements : 1498
Stream size : 93.4 KiB (0%)
Language : Greek
Default : No
Forced : No

Text #9
ID : 11
Format : UTF-8
Codec ID : S_TEXT/UTF8
Codec ID/Info : UTF-8 Plain Text
Duration : 2 h 6 min
Bit rate : 63 b/s
Frame rate : 0.211 FPS
Count of elements : 1602
Stream size : 59.2 KiB (0%)
Language : Spanish
Default : No
Forced : No

Text #10
ID : 12
Format : UTF-8
Codec ID : S_TEXT/UTF8
Codec ID/Info : UTF-8 Plain Text
Duration : 2 h 6 min
Bit rate : 57 b/s
Frame rate : 0.213 FPS
Count of elements : 1617
Stream size : 53.5 KiB (0%)
Title : Latin American
Language : Spanish
Default : No
Forced : No

Text #11
ID : 13
Format : UTF-8
Codec ID : S_TEXT/UTF8
Codec ID/Info : UTF-8 Plain Text
Duration : 2 h 6 min
Bit rate : 54 b/s
Frame rate : 0.194 FPS
Count of elements : 1469
Stream size : 50.4 KiB (0%)
Language : Estonian
Default : No
Forced : No

Text #12
ID : 14
Format : UTF-8
Codec ID : S_TEXT/UTF8
Codec ID/Info : UTF-8 Plain Text
Duration : 2 h 6 min
Bit rate : 53 b/s
Frame rate : 0.203 FPS
Count of elements : 1539
Stream size : 49.7 KiB (0%)
Language : Finnish
Default : No
Forced : No

Text #13
ID : 15
Format : UTF-8
Codec ID : S_TEXT/UTF8
Codec ID/Info : UTF-8 Plain Text
Duration : 2 h 6 min
Bit rate : 52 b/s
Frame rate : 0.209 FPS
Count of elements : 1582
Stream size : 48.7 KiB (0%)
Language : French
Default : No
Forced : No

Text #14
ID : 16
Format : UTF-8
Codec ID : S_TEXT/UTF8
Codec ID/Info : UTF-8 Plain Text
Duration : 2 h 6 min
Bit rate : 52 b/s
Frame rate : 0.209 FPS
Count of elements : 1583
Stream size : 48.8 KiB (0%)
Title : Canadian
Language : French
Default : No
Forced : No

Text #15
ID : 17
Format : UTF-8
Codec ID : S_TEXT/UTF8
Codec ID/Info : UTF-8 Plain Text
Duration : 2 h 6 min
Bit rate : 83 b/s
Frame rate : 0.213 FPS
Count of elements : 1618
Stream size : 77.6 KiB (0%)
Language : Hebrew
Default : No
Forced : No

Text #16
ID : 18
Format : UTF-8
Codec ID : S_TEXT/UTF8
Codec ID/Info : UTF-8 Plain Text
Duration : 2 h 6 min
Bit rate : 166 b/s
Frame rate : 0.214 FPS
Count of elements : 1619
Stream size : 154 KiB (0%)
Language : Hindi
Default : No
Forced : No

Text #17
ID : 19
Format : UTF-8
Codec ID : S_TEXT/UTF8
Codec ID/Info : UTF-8 Plain Text
Duration : 2 h 6 min
Bit rate : 55 b/s
Frame rate : 0.210 FPS
Count of elements : 1590
Stream size : 51.8 KiB (0%)
Language : Hungarian
Default : No
Forced : No

Text #18
ID : 20
Format : UTF-8
Codec ID : S_TEXT/UTF8
Codec ID/Info : UTF-8 Plain Text
Duration : 2 h 6 min
Bit rate : 61 b/s
Frame rate : 0.212 FPS
Count of elements : 1611
Stream size : 56.5 KiB (0%)
Language : Indonesian
Default : No
Forced : No

Text #19
ID : 21
Format : UTF-8
Codec ID : S_TEXT/UTF8
Codec ID/Info : UTF-8 Plain Text
Duration : 2 h 6 min
Bit rate : 60 b/s
Frame rate : 0.211 FPS
Count of elements : 1596
Stream size : 56.4 KiB (0%)
Language : Italian
Default : No
Forced : No

Text #20
ID : 22
Format : UTF-8
Codec ID : S_TEXT/UTF8
Codec ID/Info : UTF-8 Plain Text
Duration : 2 h 6 min
Bit rate : 48 b/s
Frame rate : 0.210 FPS
Count of elements : 1590
Stream size : 45.2 KiB (0%)
Language : Japanese
Default : No
Forced : No

Text #21
ID : 23
Format : UTF-8
Codec ID : S_TEXT/UTF8
Codec ID/Info : UTF-8 Plain Text
Duration : 2 h 6 min
Bit rate : 69 b/s
Frame rate : 0.214 FPS
Count of elements : 1619
Stream size : 63.9 KiB (0%)
Language : Korean
Default : No
Forced : No

Text #22
ID : 24
Format : UTF-8
Codec ID : S_TEXT/UTF8
Codec ID/Info : UTF-8 Plain Text
Duration : 2 h 6 min
Bit rate : 60 b/s
Frame rate : 0.207 FPS
Count of elements : 1566
Stream size : 55.8 KiB (0%)
Language : Lithuanian
Default : No
Forced : No

Text #23
ID : 25
Format : UTF-8
Codec ID : S_TEXT/UTF8
Codec ID/Info : UTF-8 Plain Text
Duration : 2 h 6 min
Bit rate : 60 b/s
Frame rate : 0.208 FPS
Count of elements : 1574
Stream size : 56.3 KiB (0%)
Language : Latvian
Default : No
Forced : No

Text #24
ID : 26
Format : UTF-8
Codec ID : S_TEXT/UTF8
Codec ID/Info : UTF-8 Plain Text
Duration : 2 h 6 min
Bit rate : 60 b/s
Frame rate : 0.212 FPS
Count of elements : 1611
Stream size : 55.8 KiB (0%)
Language : Malay
Default : No
Forced : No

Text #25
ID : 27
Format : UTF-8
Codec ID : S_TEXT/UTF8
Codec ID/Info : UTF-8 Plain Text
Duration : 2 h 6 min
Bit rate : 53 b/s
Frame rate : 0.171 FPS
Count of elements : 1297
Stream size : 49.4 KiB (0%)
Language : Dutch
Default : No
Forced : No

Text #26
ID : 28
Format : UTF-8
Codec ID : S_TEXT/UTF8
Codec ID/Info : UTF-8 Plain Text
Duration : 2 h 6 min
Bit rate : 55 b/s
Frame rate : 0.188 FPS
Count of elements : 1423
Stream size : 51.0 KiB (0%)
Language : Norwegian
Default : No
Forced : No

Text #27
ID : 29
Format : UTF-8
Codec ID : S_TEXT/UTF8
Codec ID/Info : UTF-8 Plain Text
Duration : 2 h 6 min
Bit rate : 55 b/s
Frame rate : 0.210 FPS
Count of elements : 1591
Stream size : 51.8 KiB (0%)
Language : Polish
Default : No
Forced : No

Text #28
ID : 30
Format : UTF-8
Codec ID : S_TEXT/UTF8
Codec ID/Info : UTF-8 Plain Text
Duration : 2 h 6 min
Bit rate : 61 b/s
Frame rate : 0.209 FPS
Count of elements : 1587
Stream size : 56.9 KiB (0%)
Language : Portuguese
Default : No
Forced : No

Text #29
ID : 31
Format : UTF-8
Codec ID : S_TEXT/UTF8
Codec ID/Info : UTF-8 Plain Text
Duration : 2 h 6 min
Bit rate : 56 b/s
Frame rate : 0.204 FPS
Count of elements : 1544
Stream size : 51.9 KiB (0%)
Title : Brazilian
Language : Portuguese
Default : No
Forced : No

Text #30
ID : 32
Format : UTF-8
Codec ID : S_TEXT/UTF8
Codec ID/Info : UTF-8 Plain Text
Duration : 2 h 6 min
Bit rate : 99 b/s
Frame rate : 0.213 FPS
Count of elements : 1615
Stream size : 92.1 KiB (0%)
Language : Russian
Default : No
Forced : No

Text #31
ID : 33
Format : UTF-8
Codec ID : S_TEXT/UTF8
Codec ID/Info : UTF-8 Plain Text
Duration : 2 h 6 min
Bit rate : 55 b/s
Frame rate : 0.209 FPS
Count of elements : 1584
Stream size : 51.5 KiB (0%)
Language : Slovak
Default : No
Forced : No

Text #32
ID : 34
Format : UTF-8
Codec ID : S_TEXT/UTF8
Codec ID/Info : UTF-8 Plain Text
Duration : 2 h 6 min
Bit rate : 48 b/s
Frame rate : 0.195 FPS
Count of elements : 1481
Stream size : 44.5 KiB (0%)
Language : Slovenian
Default : No
Forced : No

Text #33
ID : 35
Format : UTF-8
Codec ID : S_TEXT/UTF8
Codec ID/Info : UTF-8 Plain Text
Duration : 2 h 6 min
Bit rate : 60 b/s
Frame rate : 0.202 FPS
Count of elements : 1528
Stream size : 55.6 KiB (0%)
Language : Swedish
Default : No
Forced : No

Text #34
ID : 36
Format : UTF-8
Codec ID : S_TEXT/UTF8
Codec ID/Info : UTF-8 Plain Text
Duration : 2 h 6 min
Bit rate : 186 b/s
Frame rate : 0.213 FPS
Count of elements : 1618
Stream size : 173 KiB (0%)
Language : Tamil
Default : No
Forced : No

Text #35
ID : 37
Format : UTF-8
Codec ID : S_TEXT/UTF8
Codec ID/Info : UTF-8 Plain Text
Duration : 2 h 6 min
Bit rate : 184 b/s
Frame rate : 0.213 FPS
Count of elements : 1618
Stream size : 171 KiB (0%)
Language : Telugu
Default : No
Forced : No

Text #36
ID : 38
Format : UTF-8
Codec ID : S_TEXT/UTF8
Codec ID/Info : UTF-8 Plain Text
Duration : 2 h 6 min
Bit rate : 152 b/s
Frame rate : 0.213 FPS
Count of elements : 1618
Stream size : 141 KiB (0%)
Language : Thai
Default : No
Forced : No

Text #37
ID : 39
Format : UTF-8
Codec ID : S_TEXT/UTF8
Codec ID/Info : UTF-8 Plain Text
Duration : 2 h 6 min
Bit rate : 58 b/s
Frame rate : 0.211 FPS
Count of elements : 1600
Stream size : 54.1 KiB (0%)
Language : Turkish
Default : No
Forced : No

Text #38
ID : 40
Format : UTF-8
Codec ID : S_TEXT/UTF8
Codec ID/Info : UTF-8 Plain Text
Duration : 2 h 6 min
Bit rate : 91 b/s
Frame rate : 0.212 FPS
Count of elements : 1609
Stream size : 84.3 KiB (0%)
Language : Ukrainian
Default : No
Forced : No

Text #39
ID : 41
Format : UTF-8
Codec ID : S_TEXT/UTF8
Codec ID/Info : UTF-8 Plain Text
Duration : 2 h 6 min
Bit rate : 77 b/s
Frame rate : 0.213 FPS
Count of elements : 1613
Stream size : 71.9 KiB (0%)
Language : Vietnamese
Default : No
Forced : No

Text #40
ID : 42
Format : UTF-8
Codec ID : S_TEXT/UTF8
Codec ID/Info : UTF-8 Plain Text
Duration : 2 h 6 min
Bit rate : 53 b/s
Frame rate : 0.214 FPS
Count of elements : 1619
Stream size : 49.9 KiB (0%)
Title : Traditional
Language : Chinese
Default : No
Forced : No

Text #41
ID : 43
Format : UTF-8
Codec ID : S_TEXT/UTF8
Codec ID/Info : UTF-8 Plain Text
Duration : 2 h 6 min
Bit rate : 54 b/s
Frame rate : 0.213 FPS
Count of elements : 1618
Stream size : 50.5 KiB (0%)
Title : Mandarin Chinese Simplified
Language : Chinese
Default : No
Forced : No

Text #42
ID : 44
Format : UTF-8
Codec ID : S_TEXT/UTF8
Codec ID/Info : UTF-8 Plain Text
Duration : 2 h 6 min
Bit rate : 56 b/s
Frame rate : 0.214 FPS
Count of elements : 1619
Stream size : 52.7 KiB (0%)
Title : Mandarin Chinese Traditional
Language : Chinese
Default : No
Forced : No

[collapse]
Download Link(s)

Download

Direct download files get automatically deleted after a month or so. Posted on : 09/30/2022

[collapse]
Magnet Link

Magnet

The.Greatest.Beer.Run.Ever.2022.1080p.WEB.h264-TRUFFLE-9.58 GB

[collapse]

Media information

General
Format : Matroska
Format version : Version 4
File size : 979 MiB
Duration : 2 h 6 min
Overall bit rate : 1 079 kb/s
Movie name : The.Greatest.Beer.Run.Ever.2022.720p.10bit.WEBRip.6CH.x265.HEVC

Video
ID : 1
Format : HEVC
Format/Info : High Efficiency Video Coding
Format profile : Main [email protected]@Main
Codec ID : V_MPEGH/ISO/HEVC
Duration : 2 h 6 min
Bit rate : 869 kb/s
Width : 1 280 pixels
Height : 640 pixels
Display aspect ratio : 2.000
Frame rate mode : Constant
Frame rate : 23.976 (24000/1001) FPS
Color space : YUV
Chroma subsampling : 4:2:0
Bit depth : 10 bits
Bits/(Pixel*Frame) : 0.044
Stream size : 789 MiB (81%)
Default : Yes
Forced : No
Color range : Limited
Color primaries : BT.709
Transfer characteristics : BT.709
Matrix coefficients : BT.709

Audio
ID : 2
Format : AAC LC SBR
Commercial name : HE-AAC
Format settings : Explicit
Codec ID : A_AAC-2
Duration : 2 h 6 min
Bit rate : 202 kb/s
Channel(s) : 6 channels
Channel layout : C L R Ls Rs LFE
Sampling rate : 48.0 kHz
Frame rate : 23.438 FPS (2048 SPF)
Compression mode : Lossy
Delay relative to video : 23 ms
Stream size : 183 MiB (19%)
Language : English
Default : Yes
Forced : No

Text #1
ID : 3
Format : UTF-8
Codec ID : S_TEXT/UTF8
Codec ID/Info : UTF-8 Plain Text
Duration : 1 h 57 min
Bit rate : 66 b/s
Frame rate : 0.222 FPS
Count of elements : 1566
Stream size : 57.3 KiB (0%)
Language : English
Default : No
Forced : No

Text #2
ID : 4
Format : UTF-8
Codec ID : S_TEXT/UTF8
Codec ID/Info : UTF-8 Plain Text
Duration : 1 h 57 min
Bit rate : 73 b/s
Frame rate : 0.248 FPS
Count of elements : 1751
Stream size : 63.8 KiB (0%)
Title : SDH
Language : English
Default : Yes
Forced : No

Text #3
ID : 5
Format : UTF-8
Codec ID : S_TEXT/UTF8
Codec ID/Info : UTF-8 Plain Text
Duration : 2 h 6 min
Bit rate : 97 b/s
Frame rate : 0.213 FPS
Count of elements : 1618
Stream size : 89.8 KiB (0%)
Language : Arabic
Default : No
Forced : No

Text #4
ID : 6
Format : UTF-8
Codec ID : S_TEXT/UTF8
Codec ID/Info : UTF-8 Plain Text
Duration : 2 h 6 min
Bit rate : 86 b/s
Frame rate : 0.193 FPS
Count of elements : 1466
Stream size : 80.1 KiB (0%)
Language : Bulgarian
Default : No
Forced : No

Text #5
ID : 7
Format : UTF-8
Codec ID : S_TEXT/UTF8
Codec ID/Info : UTF-8 Plain Text
Duration : 2 h 6 min
Bit rate : 53 b/s
Frame rate : 0.200 FPS
Count of elements : 1519
Stream size : 49.2 KiB (0%)
Language : Czech
Default : No
Forced : No

Text #6
ID : 8
Format : UTF-8
Codec ID : S_TEXT/UTF8
Codec ID/Info : UTF-8 Plain Text
Duration : 2 h 6 min
Bit rate : 54 b/s
Frame rate : 0.198 FPS
Count of elements : 1505
Stream size : 50.4 KiB (0%)
Language : Danish
Default : No
Forced : No

Text #7
ID : 9
Format : UTF-8
Codec ID : S_TEXT/UTF8
Codec ID/Info : UTF-8 Plain Text
Duration : 2 h 6 min
Bit rate : 62 b/s
Frame rate : 0.206 FPS
Count of elements : 1560
Stream size : 57.5 KiB (0%)
Language : German
Default : No
Forced : No

Text #8
ID : 10
Format : UTF-8
Codec ID : S_TEXT/UTF8
Codec ID/Info : UTF-8 Plain Text
Duration : 2 h 6 min
Bit rate : 100 b/s
Frame rate : 0.198 FPS
Count of elements : 1498
Stream size : 93.4 KiB (0%)
Language : Greek
Default : No
Forced : No

Text #9
ID : 11
Format : UTF-8
Codec ID : S_TEXT/UTF8
Codec ID/Info : UTF-8 Plain Text
Duration : 2 h 6 min
Bit rate : 63 b/s
Frame rate : 0.211 FPS
Count of elements : 1602
Stream size : 59.2 KiB (0%)
Language : Spanish
Default : No
Forced : No

Text #10
ID : 12
Format : UTF-8
Codec ID : S_TEXT/UTF8
Codec ID/Info : UTF-8 Plain Text
Duration : 2 h 6 min
Bit rate : 57 b/s
Frame rate : 0.213 FPS
Count of elements : 1617
Stream size : 53.5 KiB (0%)
Title : Latin American
Language : Spanish
Default : No
Forced : No

Text #11
ID : 13
Format : UTF-8
Codec ID : S_TEXT/UTF8
Codec ID/Info : UTF-8 Plain Text
Duration : 2 h 6 min
Bit rate : 54 b/s
Frame rate : 0.194 FPS
Count of elements : 1469
Stream size : 50.4 KiB (0%)
Language : Estonian
Default : No
Forced : No

Text #12
ID : 14
Format : UTF-8
Codec ID : S_TEXT/UTF8
Codec ID/Info : UTF-8 Plain Text
Duration : 2 h 6 min
Bit rate : 53 b/s
Frame rate : 0.203 FPS
Count of elements : 1539
Stream size : 49.7 KiB (0%)
Language : Finnish
Default : No
Forced : No

Text #13
ID : 15
Format : UTF-8
Codec ID : S_TEXT/UTF8
Codec ID/Info : UTF-8 Plain Text
Duration : 2 h 6 min
Bit rate : 52 b/s
Frame rate : 0.209 FPS
Count of elements : 1582
Stream size : 48.7 KiB (0%)
Language : French
Default : No
Forced : No

Text #14
ID : 16
Format : UTF-8
Codec ID : S_TEXT/UTF8
Codec ID/Info : UTF-8 Plain Text
Duration : 2 h 6 min
Bit rate : 52 b/s
Frame rate : 0.209 FPS
Count of elements : 1583
Stream size : 48.8 KiB (0%)
Title : Canadian
Language : French
Default : No
Forced : No

Text #15
ID : 17
Format : UTF-8
Codec ID : S_TEXT/UTF8
Codec ID/Info : UTF-8 Plain Text
Duration : 2 h 6 min
Bit rate : 83 b/s
Frame rate : 0.213 FPS
Count of elements : 1618
Stream size : 77.6 KiB (0%)
Language : Hebrew
Default : No
Forced : No

Text #16
ID : 18
Format : UTF-8
Codec ID : S_TEXT/UTF8
Codec ID/Info : UTF-8 Plain Text
Duration : 2 h 6 min
Bit rate : 166 b/s
Frame rate : 0.214 FPS
Count of elements : 1619
Stream size : 154 KiB (0%)
Language : Hindi
Default : No
Forced : No

Text #17
ID : 19
Format : UTF-8
Codec ID : S_TEXT/UTF8
Codec ID/Info : UTF-8 Plain Text
Duration : 2 h 6 min
Bit rate : 55 b/s
Frame rate : 0.210 FPS
Count of elements : 1590
Stream size : 51.8 KiB (0%)
Language : Hungarian
Default : No
Forced : No

Text #18
ID : 20
Format : UTF-8
Codec ID : S_TEXT/UTF8
Codec ID/Info : UTF-8 Plain Text
Duration : 2 h 6 min
Bit rate : 61 b/s
Frame rate : 0.212 FPS
Count of elements : 1611
Stream size : 56.5 KiB (0%)
Language : Indonesian
Default : No
Forced : No

Text #19
ID : 21
Format : UTF-8
Codec ID : S_TEXT/UTF8
Codec ID/Info : UTF-8 Plain Text
Duration : 2 h 6 min
Bit rate : 60 b/s
Frame rate : 0.211 FPS
Count of elements : 1596
Stream size : 56.4 KiB (0%)
Language : Italian
Default : No
Forced : No

Text #20
ID : 22
Format : UTF-8
Codec ID : S_TEXT/UTF8
Codec ID/Info : UTF-8 Plain Text
Duration : 2 h 6 min
Bit rate : 48 b/s
Frame rate : 0.210 FPS
Count of elements : 1590
Stream size : 45.2 KiB (0%)
Language : Japanese
Default : No
Forced : No

Text #21
ID : 23
Format : UTF-8
Codec ID : S_TEXT/UTF8
Codec ID/Info : UTF-8 Plain Text
Duration : 2 h 6 min
Bit rate : 69 b/s
Frame rate : 0.214 FPS
Count of elements : 1619
Stream size : 63.9 KiB (0%)
Language : Korean
Default : No
Forced : No

Text #22
ID : 24
Format : UTF-8
Codec ID : S_TEXT/UTF8
Codec ID/Info : UTF-8 Plain Text
Duration : 2 h 6 min
Bit rate : 60 b/s
Frame rate : 0.207 FPS
Count of elements : 1566
Stream size : 55.8 KiB (0%)
Language : Lithuanian
Default : No
Forced : No

Text #23
ID : 25
Format : UTF-8
Codec ID : S_TEXT/UTF8
Codec ID/Info : UTF-8 Plain Text
Duration : 2 h 6 min
Bit rate : 60 b/s
Frame rate : 0.208 FPS
Count of elements : 1574
Stream size : 56.3 KiB (0%)
Language : Latvian
Default : No
Forced : No

Text #24
ID : 26
Format : UTF-8
Codec ID : S_TEXT/UTF8
Codec ID/Info : UTF-8 Plain Text
Duration : 2 h 6 min
Bit rate : 60 b/s
Frame rate : 0.212 FPS
Count of elements : 1611
Stream size : 55.8 KiB (0%)
Language : Malay
Default : No
Forced : No

Text #25
ID : 27
Format : UTF-8
Codec ID : S_TEXT/UTF8
Codec ID/Info : UTF-8 Plain Text
Duration : 2 h 6 min
Bit rate : 53 b/s
Frame rate : 0.171 FPS
Count of elements : 1297
Stream size : 49.4 KiB (0%)
Language : Dutch
Default : No
Forced : No

Text #26
ID : 28
Format : UTF-8
Codec ID : S_TEXT/UTF8
Codec ID/Info : UTF-8 Plain Text
Duration : 2 h 6 min
Bit rate : 55 b/s
Frame rate : 0.188 FPS
Count of elements : 1423
Stream size : 51.0 KiB (0%)
Language : Norwegian
Default : No
Forced : No

Text #27
ID : 29
Format : UTF-8
Codec ID : S_TEXT/UTF8
Codec ID/Info : UTF-8 Plain Text
Duration : 2 h 6 min
Bit rate : 55 b/s
Frame rate : 0.210 FPS
Count of elements : 1591
Stream size : 51.8 KiB (0%)
Language : Polish
Default : No
Forced : No

Text #28
ID : 30
Format : UTF-8
Codec ID : S_TEXT/UTF8
Codec ID/Info : UTF-8 Plain Text
Duration : 2 h 6 min
Bit rate : 61 b/s
Frame rate : 0.209 FPS
Count of elements : 1587
Stream size : 56.9 KiB (0%)
Language : Portuguese
Default : No
Forced : No

Text #29
ID : 31
Format : UTF-8
Codec ID : S_TEXT/UTF8
Codec ID/Info : UTF-8 Plain Text
Duration : 2 h 6 min
Bit rate : 56 b/s
Frame rate : 0.204 FPS
Count of elements : 1544
Stream size : 51.9 KiB (0%)
Title : Brazilian
Language : Portuguese
Default : No
Forced : No

Text #30
ID : 32
Format : UTF-8
Codec ID : S_TEXT/UTF8
Codec ID/Info : UTF-8 Plain Text
Duration : 2 h 6 min
Bit rate : 99 b/s
Frame rate : 0.213 FPS
Count of elements : 1615
Stream size : 92.1 KiB (0%)
Language : Russian
Default : No
Forced : No

Text #31
ID : 33
Format : UTF-8
Codec ID : S_TEXT/UTF8
Codec ID/Info : UTF-8 Plain Text
Duration : 2 h 6 min
Bit rate : 55 b/s
Frame rate : 0.209 FPS
Count of elements : 1584
Stream size : 51.5 KiB (0%)
Language : Slovak
Default : No
Forced : No

Text #32
ID : 34
Format : UTF-8
Codec ID : S_TEXT/UTF8
Codec ID/Info : UTF-8 Plain Text
Duration : 2 h 6 min
Bit rate : 48 b/s
Frame rate : 0.195 FPS
Count of elements : 1481
Stream size : 44.5 KiB (0%)
Language : Slovenian
Default : No
Forced : No

Text #33
ID : 35
Format : UTF-8
Codec ID : S_TEXT/UTF8
Codec ID/Info : UTF-8 Plain Text
Duration : 2 h 6 min
Bit rate : 60 b/s
Frame rate : 0.202 FPS
Count of elements : 1528
Stream size : 55.6 KiB (0%)
Language : Swedish
Default : No
Forced : No

Text #34
ID : 36
Format : UTF-8
Codec ID : S_TEXT/UTF8
Codec ID/Info : UTF-8 Plain Text
Duration : 2 h 6 min
Bit rate : 186 b/s
Frame rate : 0.213 FPS
Count of elements : 1618
Stream size : 173 KiB (0%)
Language : Tamil
Default : No
Forced : No

Text #35
ID : 37
Format : UTF-8
Codec ID : S_TEXT/UTF8
Codec ID/Info : UTF-8 Plain Text
Duration : 2 h 6 min
Bit rate : 184 b/s
Frame rate : 0.213 FPS
Count of elements : 1618
Stream size : 171 KiB (0%)
Language : Telugu
Default : No
Forced : No

Text #36
ID : 38
Format : UTF-8
Codec ID : S_TEXT/UTF8
Codec ID/Info : UTF-8 Plain Text
Duration : 2 h 6 min
Bit rate : 152 b/s
Frame rate : 0.213 FPS
Count of elements : 1618
Stream size : 141 KiB (0%)
Language : Thai
Default : No
Forced : No

Text #37
ID : 39
Format : UTF-8
Codec ID : S_TEXT/UTF8
Codec ID/Info : UTF-8 Plain Text
Duration : 2 h 6 min
Bit rate : 58 b/s
Frame rate : 0.211 FPS
Count of elements : 1600
Stream size : 54.1 KiB (0%)
Language : Turkish
Default : No
Forced : No

Text #38
ID : 40
Format : UTF-8
Codec ID : S_TEXT/UTF8
Codec ID/Info : UTF-8 Plain Text
Duration : 2 h 6 min
Bit rate : 91 b/s
Frame rate : 0.212 FPS
Count of elements : 1609
Stream size : 84.3 KiB (0%)
Language : Ukrainian
Default : No
Forced : No

Text #39
ID : 41
Format : UTF-8
Codec ID : S_TEXT/UTF8
Codec ID/Info : UTF-8 Plain Text
Duration : 2 h 6 min
Bit rate : 77 b/s
Frame rate : 0.213 FPS
Count of elements : 1613
Stream size : 71.9 KiB (0%)
Language : Vietnamese
Default : No
Forced : No

Text #40
ID : 42
Format : UTF-8
Codec ID : S_TEXT/UTF8
Codec ID/Info : UTF-8 Plain Text
Duration : 2 h 6 min
Bit rate : 53 b/s
Frame rate : 0.214 FPS
Count of elements : 1619
Stream size : 49.9 KiB (0%)
Title : Traditional
Language : Chinese
Default : No
Forced : No

Text #41
ID : 43
Format : UTF-8
Codec ID : S_TEXT/UTF8
Codec ID/Info : UTF-8 Plain Text
Duration : 2 h 6 min
Bit rate : 54 b/s
Frame rate : 0.213 FPS
Count of elements : 1618
Stream size : 50.5 KiB (0%)
Title : Mandarin Chinese Simplified
Language : Chinese
Default : No
Forced : No

Text #42
ID : 44
Format : UTF-8
Codec ID : S_TEXT/UTF8
Codec ID/Info : UTF-8 Plain Text
Duration : 2 h 6 min
Bit rate : 56 b/s
Frame rate : 0.214 FPS
Count of elements : 1619
Stream size : 52.7 KiB (0%)
Title : Mandarin Chinese Traditional
Language : Chinese
Default : No
Forced : No

[collapse]
Download Link(s)

Download

Direct download files get automatically deleted after a month or so. Posted on : 09/30/2022

[collapse]
Magnet Link

Magnet

The.Greatest.Beer.Run.Ever.2022.1080p.WEB.h264-TRUFFLE-9.58 GB

[collapse]

You may also like...

error: nah :p~