The Godfather (1972)

R | 2h 55min | Crime, Drama | 24 March 1972 (USA)

An organized crime dynasty’s aging patriarch transfers control of his clandestine empire to his reluctant son.

Watch trailer

Media information

General
Format : Matroska
Format version : Version 4
File size : 2.98 GiB
Duration : 2 h 57 min
Overall bit rate : 2 410 kb/s
Movie name : The.Godfather.1972.1080p.10bit.BluRay.6CH.x265.HEVC

Video
ID : 1
Format : HEVC
Format/Info : High Efficiency Video Coding
Format profile : Main [email protected]@Main
Codec ID : V_MPEGH/ISO/HEVC
Duration : 2 h 57 min
Bit rate : 1 972 kb/s
Width : 1 920 pixels
Height : 1 080 pixels
Display aspect ratio : 16:9
Frame rate mode : Variable
Frame rate : 23.976 FPS
Color space : YUV
Chroma subsampling : 4:2:0 (Type 0)
Bit depth : 10 bits
Bits/(Pixel*Frame) : 0.040
Stream size : 2.44 GiB (82%)
Default : No
Forced : No
Color range : Limited
Color primaries : BT.709
Transfer characteristics : BT.709
Matrix coefficients : BT.709

Audio
ID : 2
Format : AAC LC
Codec ID : A_AAC-2
Duration : 2 h 57 min
Bit rate : 384 kb/s
Channel(s) : 6 channels
Channel layout : L R C Cb Lb Rb
Sampling rate : 48.0 kHz
Frame rate : 46.875 FPS (1024 SPF)
Compression mode : Lossy
Stream size : 486 MiB (16%)
Language : English
Default : Yes
Forced : No

Text #1
ID : 3
Format : UTF-8
Codec ID : S_TEXT/UTF8
Codec ID/Info : UTF-8 Plain Text
Duration : 1 h 23 min
Bit rate : 3 b/s
Count of elements : 74
Stream size : 2.05 KiB (0%)
Language : English
Default : No
Forced : No

Text #2
ID : 4
Format : UTF-8
Codec ID : S_TEXT/UTF8
Codec ID/Info : UTF-8 Plain Text
Duration : 2 h 51 min
Bit rate : 42 b/s
Count of elements : 1309
Stream size : 53.3 KiB (0%)
Language : English
Default : Yes
Forced : No

Text #3
ID : 5
Format : PGS
Muxing mode : zlib
Codec ID : S_HDMV/PGS
Duration : 2 h 51 min
Bit rate : 35.2 kb/s
Count of elements : 2624
Stream size : 43.2 MiB (1%)
Language : English
Default : No
Forced : No

Text #4
ID : 6
Format : PGS
Muxing mode : zlib
Codec ID : S_HDMV/PGS
Duration : 2 h 51 min
Bit rate : 38.6 kb/s
Count of elements : 2986
Stream size : 47.4 MiB (2%)
Language : English
Default : No
Forced : No

Text #5
ID : 7
Format : PGS
Muxing mode : zlib
Codec ID : S_HDMV/PGS
Duration : 2 h 51 min
Bit rate : 30.7 kb/s
Count of elements : 2508
Stream size : 37.7 MiB (1%)
Language : French
Default : No
Forced : No

Text #6
ID : 8
Format : PGS
Muxing mode : zlib
Codec ID : S_HDMV/PGS
Duration : 2 h 51 min
Bit rate : 30.4 kb/s
Count of elements : 2558
Stream size : 37.4 MiB (1%)
Language : Spanish
Default : No
Forced : No

Text #7
ID : 9
Format : PGS
Muxing mode : zlib
Codec ID : S_HDMV/PGS
Duration : 2 h 51 min
Bit rate : 34.7 kb/s
Count of elements : 2644
Stream size : 42.7 MiB (1%)
Language : Portuguese
Default : No
Forced : No

Text #8
ID : 10
Format : PGS
Muxing mode : zlib
Codec ID : S_HDMV/PGS
Duration : 1 h 23 min
Bit rate : 2 893 b/s
Count of elements : 148
Stream size : 1.73 MiB (0%)
Language : English
Default : No
Forced : No

Text #9
ID : 11
Format : PGS
Muxing mode : zlib
Codec ID : S_HDMV/PGS
Duration : 1 h 23 min
Bit rate : 2 893 b/s
Count of elements : 148
Stream size : 1.73 MiB (0%)
Language : English
Default : No
Forced : No

Text #10
ID : 12
Format : PGS
Muxing mode : zlib
Codec ID : S_HDMV/PGS
Duration : 2 h 5 min
Bit rate : 2 300 b/s
Count of elements : 166
Stream size : 2.06 MiB (0%)
Language : French
Default : No
Forced : No

Text #11
ID : 13
Format : PGS
Muxing mode : zlib
Codec ID : S_HDMV/PGS
Duration : 2 h 5 min
Bit rate : 2 300 b/s
Count of elements : 166
Stream size : 2.06 MiB (0%)
Language : French
Default : No
Forced : No

Text #12
ID : 14
Format : PGS
Muxing mode : zlib
Codec ID : S_HDMV/PGS
Duration : 2 h 48 min
Bit rate : 1 731 b/s
Count of elements : 168
Stream size : 2.08 MiB (0%)
Language : Spanish
Default : No
Forced : No

Text #13
ID : 15
Format : PGS
Muxing mode : zlib
Codec ID : S_HDMV/PGS
Duration : 2 h 48 min
Bit rate : 1 731 b/s
Count of elements : 168
Stream size : 2.08 MiB (0%)
Language : Spanish
Default : No
Forced : No

[collapse]
Download Link(s)

Download

Direct download files get automatically deleted after a month or so. Posted on: 01/20/2022

[collapse]
Magnet Link

Magnet

The.Godfather.1972.1080p.BluRay.REMUX.AVC.DTS-HD.MA.TrueHD.5.1-FGT-45.68 GB

[collapse]

Media information

General
Format : Matroska
Format version : Version 4
File size : 1.64 GiB
Duration : 2 h 57 min
Overall bit rate : 1 328 kb/s
Movie name : The.Godfather.1972.720p.10bit.BluRay.6CH.x265.HEVC

Video
ID : 1
Format : HEVC
Format/Info : High Efficiency Video Coding
Format profile : Main [email protected]@Main
Codec ID : V_MPEGH/ISO/HEVC
Duration : 2 h 57 min
Bit rate : 987 kb/s
Width : 1 280 pixels
Height : 720 pixels
Display aspect ratio : 16:9
Frame rate mode : Variable
Frame rate : 23.976 FPS
Color space : YUV
Chroma subsampling : 4:2:0 (Type 0)
Bit depth : 10 bits
Bits/(Pixel*Frame) : 0.045
Stream size : 1.22 GiB (74%)
Default : No
Forced : No
Color range : Limited
Color primaries : BT.709
Transfer characteristics : BT.709
Matrix coefficients : BT.709

Audio
ID : 2
Format : AAC LC
Codec ID : A_AAC-2
Duration : 2 h 57 min
Bit rate : 288 kb/s
Channel(s) : 6 channels
Channel layout : L R C Cb Lb Rb
Sampling rate : 48.0 kHz
Frame rate : 46.875 FPS (1024 SPF)
Compression mode : Lossy
Stream size : 364 MiB (22%)
Language : English
Default : Yes
Forced : No

Text #1
ID : 3
Format : UTF-8
Codec ID : S_TEXT/UTF8
Codec ID/Info : UTF-8 Plain Text
Duration : 1 h 23 min
Bit rate : 3 b/s
Count of elements : 74
Stream size : 2.05 KiB (0%)
Language : English
Default : No
Forced : No

Text #2
ID : 4
Format : UTF-8
Codec ID : S_TEXT/UTF8
Codec ID/Info : UTF-8 Plain Text
Duration : 2 h 51 min
Bit rate : 42 b/s
Count of elements : 1309
Stream size : 53.3 KiB (0%)
Language : English
Default : Yes
Forced : No

Text #3
ID : 5
Format : PGS
Muxing mode : zlib
Codec ID : S_HDMV/PGS
Duration : 2 h 51 min
Bit rate : 35.2 kb/s
Count of elements : 2624
Stream size : 43.2 MiB (3%)
Language : English
Default : No
Forced : No

Text #4
ID : 6
Format : PGS
Muxing mode : zlib
Codec ID : S_HDMV/PGS
Duration : 2 h 51 min
Bit rate : 38.6 kb/s
Count of elements : 2986
Stream size : 47.4 MiB (3%)
Language : English
Default : No
Forced : No

Text #5
ID : 7
Format : PGS
Muxing mode : zlib
Codec ID : S_HDMV/PGS
Duration : 2 h 51 min
Bit rate : 30.7 kb/s
Count of elements : 2508
Stream size : 37.7 MiB (2%)
Language : French
Default : No
Forced : No

Text #6
ID : 8
Format : PGS
Muxing mode : zlib
Codec ID : S_HDMV/PGS
Duration : 2 h 51 min
Bit rate : 30.4 kb/s
Count of elements : 2558
Stream size : 37.4 MiB (2%)
Language : Spanish
Default : No
Forced : No

Text #7
ID : 9
Format : PGS
Muxing mode : zlib
Codec ID : S_HDMV/PGS
Duration : 2 h 51 min
Bit rate : 34.7 kb/s
Count of elements : 2644
Stream size : 42.7 MiB (3%)
Language : Portuguese
Default : No
Forced : No

Text #8
ID : 10
Format : PGS
Muxing mode : zlib
Codec ID : S_HDMV/PGS
Duration : 1 h 23 min
Bit rate : 2 893 b/s
Count of elements : 148
Stream size : 1.73 MiB (0%)
Language : English
Default : No
Forced : No

Text #9
ID : 11
Format : PGS
Muxing mode : zlib
Codec ID : S_HDMV/PGS
Duration : 1 h 23 min
Bit rate : 2 893 b/s
Count of elements : 148
Stream size : 1.73 MiB (0%)
Language : English
Default : No
Forced : No

Text #10
ID : 12
Format : PGS
Muxing mode : zlib
Codec ID : S_HDMV/PGS
Duration : 2 h 5 min
Bit rate : 2 300 b/s
Count of elements : 166
Stream size : 2.06 MiB (0%)
Language : French
Default : No
Forced : No

Text #11
ID : 13
Format : PGS
Muxing mode : zlib
Codec ID : S_HDMV/PGS
Duration : 2 h 5 min
Bit rate : 2 300 b/s
Count of elements : 166
Stream size : 2.06 MiB (0%)
Language : French
Default : No
Forced : No

Text #12
ID : 14
Format : PGS
Muxing mode : zlib
Codec ID : S_HDMV/PGS
Duration : 2 h 48 min
Bit rate : 1 731 b/s
Count of elements : 168
Stream size : 2.08 MiB (0%)
Language : Spanish
Default : No
Forced : No

Text #13
ID : 15
Format : PGS
Muxing mode : zlib
Codec ID : S_HDMV/PGS
Duration : 2 h 48 min
Bit rate : 1 731 b/s
Count of elements : 168
Stream size : 2.08 MiB (0%)
Language : Spanish
Default : No
Forced : No

[collapse]
Download Link(s)

Download

Direct download files get automatically deleted after a month or so. Posted on: 01/20/2022

[collapse]
Magnet Link

Magnet

The.Godfather.1972.1080p.BluRay.REMUX.AVC.DTS-HD.MA.TrueHD.5.1-FGT-45.68 GB

[collapse]

You may also like...

error: nah :p~