The General’s Daughter (1999)

R | 1h 56min | Crime, Drama, Mystery

When the daughter of a well-known and well-respected base commander is murdered, an undercover detective is summoned to look into the matter and finds a slew of cover-ups at West Point.

Watch trailer

Media information

General
Format : Matroska
Format version : Version 4
File size : 2.07 GiB
Duration : 1 h 56 min
Overall bit rate : 2 546 kb/s
Frame rate : 23.976 FPS
Movie name : The.Generals.Daughter.1999.1080p.10bit.BluRay.6CH.x265.HEVC

Video
ID : 1
Format : HEVC
Format/Info : High Efficiency Video Coding
Format profile : Main 10@L4@Main
Codec ID : V_MPEGH/ISO/HEVC
Duration : 1 h 56 min
Bit rate : 2 160 kb/s
Width : 1 920 pixels
Height : 1 080 pixels
Display aspect ratio : 2.40:1
Frame rate mode : Constant
Frame rate : 23.976 (23976/1000) FPS
Color space : YUV
Chroma subsampling : 4:2:0 (Type 0)
Bit depth : 10 bits
Bits/(Pixel*Frame) : 0.043
Stream size : 1.76 GiB (85%)
Default : Yes
Forced : No
Color range : Limited

Audio
ID : 2
Format : AC-3
Format/Info : Audio Coding 3
Commercial name : Dolby Digital
Codec ID : A_AC3
Duration : 1 h 56 min
Bit rate mode : Constant
Bit rate : 384 kb/s
Channel(s) : 6 channels
Channel layout : L R C LFE Ls Rs
Sampling rate : 48.0 kHz
Frame rate : 31.250 FPS (1536 SPF)
Bit depth : 32 bits
Compression mode : Lossy
Delay relative to video : -42 ms
Stream size : 320 MiB (15%)
Language : English
Service kind : Complete Main
Default : Yes
Forced : No
Dialog Normalization : -31 dB
cmixlev : -4.5 dB
surmixlev : -6 dB
dialnorm_Average : -31 dB
dialnorm_Minimum : -31 dB
dialnorm_Maximum : -31 dB

Text #1
ID : 3
Format : UTF-8
Codec ID : S_TEXT/UTF8
Codec ID/Info : UTF-8 Plain Text
Duration : 1 h 49 min
Bit rate : 64 b/s
Frame rate : 0.242 FPS
Count of elements : 1590
Stream size : 51.5 KiB (0%)
Language : English
Default : Yes
Forced : No

Text #2
ID : 4
Format : UTF-8
Codec ID : S_TEXT/UTF8
Codec ID/Info : UTF-8 Plain Text
Duration : 1 h 51 min
Bit rate : 54 b/s
Frame rate : 0.142 FPS
Count of elements : 944
Stream size : 44.0 KiB (0%)
Language : Romanian
Default : No
Forced : No

[collapse]
Download Link(s)

Download

Direct download files get automatically deleted after a month or so. Posted on : 05/04/2024

[collapse]
Magnet Link

Magnet

The.Generals.Daughter.1999.John.Travolta.1080p.BluRay.H264.DolbyD.5.1.nickarad-2.97 GB

[collapse]

Media information

General
Format : Matroska
Format version : Version 4
File size : 1.05 GiB
Duration : 1 h 56 min
Overall bit rate : 1 297 kb/s
Frame rate : 23.976 FPS
Movie name : The.Generals.Daughter.1999.720p.10bit.BluRay.6CH.x265.HEVC

Video
ID : 1
Format : HEVC
Format/Info : High Efficiency Video Coding
Format profile : Main [email protected]@Main
Codec ID : V_MPEGH/ISO/HEVC
Duration : 1 h 56 min
Bit rate : 1 039 kb/s
Width : 1 280 pixels
Height : 720 pixels
Display aspect ratio : 2.40:1
Frame rate mode : Constant
Frame rate : 23.976 (23976/1000) FPS
Color space : YUV
Chroma subsampling : 4:2:0 (Type 0)
Bit depth : 10 bits
Bits/(Pixel*Frame) : 0.047
Stream size : 865 MiB (80%)
Default : Yes
Forced : No
Color range : Limited

Audio
ID : 2
Format : AC-3
Format/Info : Audio Coding 3
Commercial name : Dolby Digital
Codec ID : A_AC3
Duration : 1 h 56 min
Bit rate mode : Constant
Bit rate : 256 kb/s
Channel(s) : 6 channels
Channel layout : L R C LFE Ls Rs
Sampling rate : 48.0 kHz
Frame rate : 31.250 FPS (1536 SPF)
Bit depth : 32 bits
Compression mode : Lossy
Delay relative to video : -42 ms
Stream size : 213 MiB (20%)
Language : English
Service kind : Complete Main
Default : Yes
Forced : No
Dialog Normalization : -31 dB
cmixlev : -4.5 dB
surmixlev : -6 dB
dialnorm_Average : -31 dB
dialnorm_Minimum : -31 dB
dialnorm_Maximum : -31 dB

Text #1
ID : 3
Format : UTF-8
Codec ID : S_TEXT/UTF8
Codec ID/Info : UTF-8 Plain Text
Duration : 1 h 49 min
Bit rate : 64 b/s
Frame rate : 0.242 FPS
Count of elements : 1590
Stream size : 51.5 KiB (0%)
Language : English
Default : Yes
Forced : No

Text #2
ID : 4
Format : UTF-8
Codec ID : S_TEXT/UTF8
Codec ID/Info : UTF-8 Plain Text
Duration : 1 h 51 min
Bit rate : 54 b/s
Frame rate : 0.142 FPS
Count of elements : 944
Stream size : 44.0 KiB (0%)
Language : Romanian
Default : No
Forced : No

[collapse]
Download Link(s)

Download

Direct download files get automatically deleted after a month or so. Posted on : 05/04/2024

[collapse]
Magnet Link

Magnet

The.Generals.Daughter.1999.John.Travolta.1080p.BluRay.H264.DolbyD.5.1.nickarad-2.97 GB

[collapse]

You may also like...

error: nah :p~