The Forgotten Battle (2020)

Original title: De slag om de Schelde | TV-MA | 2h 4min | Drama, War

1944, the Second World War. A British glider pilot, a Dutch boy fighting on the German side and a Dutch female resistance member all end up involved in the Battle of the Scheldt. Their choices differ, but their goal is the same: freedom.

Watch trailer

Media information

General
Format : Matroska
Format version : Version 4
File size : 2.09 GiB
Duration : 2 h 7 min
Overall bit rate : 2 347 kb/s
Movie name : The.Forgotten.Battle.A.K.A.De.slag.om.de.Schelde.2020.DUAL-AUDIO.DUT-ENG.1080p.10bit.WEBRip.6CH.x265.HEVC

Video
ID : 1
Format : HEVC
Format/Info : High Efficiency Video Coding
Format profile : Main 10@L4@Main
Codec ID : V_MPEGH/ISO/HEVC
Duration : 2 h 7 min
Bit rate : 1 899 kb/s
Width : 1 920 pixels
Height : 808 pixels
Display aspect ratio : 2.40:1
Frame rate mode : Constant
Frame rate : 24.000 FPS
Color space : YUV
Chroma subsampling : 4:2:0
Bit depth : 10 bits
Bits/(Pixel*Frame) : 0.051
Stream size : 1.69 GiB (81%)
Default : Yes
Forced : No

Audio #1
ID : 2
Format : AAC LC SBR
Commercial name : HE-AAC
Format settings : Explicit
Codec ID : A_AAC-2
Duration : 2 h 7 min
Bit rate : 221 kb/s
Channel(s) : 6 channels
Channel layout : C L R Ls Rs LFE
Sampling rate : 48.0 kHz
Frame rate : 23.438 FPS (2048 SPF)
Compression mode : Lossy
Delay relative to video : 23 ms
Stream size : 202 MiB (9%)
Language : Dutch
Default : Yes
Forced : No

Audio #2
ID : 3
Format : AAC LC SBR
Commercial name : HE-AAC
Format settings : Explicit
Codec ID : A_AAC-2
Duration : 2 h 7 min
Bit rate : 221 kb/s
Channel(s) : 6 channels
Channel layout : C L R Ls Rs LFE
Sampling rate : 48.0 kHz
Frame rate : 23.438 FPS (2048 SPF)
Compression mode : Lossy
Delay relative to video : 23 ms
Stream size : 202 MiB (9%)
Language : English
Default : No
Forced : No

Text #1
ID : 4
Format : UTF-8
Codec ID : S_TEXT/UTF8
Codec ID/Info : UTF-8 Plain Text
Duration : 1 h 59 min
Bit rate : 32 b/s
Count of elements : 1175
Stream size : 29.0 KiB (0%)
Title : SDH
Language : English
Default : Yes
Forced : No

Text #2
ID : 5
Format : UTF-8
Codec ID : S_TEXT/UTF8
Codec ID/Info : UTF-8 Plain Text
Duration : 2 h 4 min
Bit rate : 8 b/s
Count of elements : 283
Stream size : 7.61 KiB (0%)
Title : Forced
Language : English
Default : No
Forced : Yes

Text #3
ID : 6
Format : UTF-8
Codec ID : S_TEXT/UTF8
Codec ID/Info : UTF-8 Plain Text
Duration : 2 h 4 min
Bit rate : 14 b/s
Count of elements : 528
Stream size : 13.5 KiB (0%)
Language : English
Default : No
Forced : No

Text #4
ID : 7
Format : UTF-8
Codec ID : S_TEXT/UTF8
Codec ID/Info : UTF-8 Plain Text
Duration : 1 h 58 min
Bit rate : 26 b/s
Count of elements : 952
Stream size : 23.3 KiB (0%)
Language : English
Default : No
Forced : No

Text #5
ID : 8
Format : UTF-8
Codec ID : S_TEXT/UTF8
Codec ID/Info : UTF-8 Plain Text
Duration : 1 h 49 min
Bit rate : 19 b/s
Count of elements : 546
Stream size : 15.2 KiB (0%)
Title : Forced
Language : Dutch
Default : No
Forced : No

Text #6
ID : 9
Format : UTF-8
Codec ID : S_TEXT/UTF8
Codec ID/Info : UTF-8 Plain Text
Duration : 2 h 2 min
Bit rate : 32 b/s
Count of elements : 1097
Stream size : 29.2 KiB (0%)
Title : SDH
Language : Dutch
Default : No
Forced : No

Text #7
ID : 10
Format : UTF-8
Codec ID : S_TEXT/UTF8
Codec ID/Info : UTF-8 Plain Text
Duration : 2 h 6 min
Bit rate : 43 b/s
Count of elements : 928
Stream size : 40.0 KiB (0%)
Language : Arabic
Default : No
Forced : No

Text #8
ID : 11
Format : UTF-8
Codec ID : S_TEXT/UTF8
Codec ID/Info : UTF-8 Plain Text
Duration : 2 h 6 min
Bit rate : 22 b/s
Count of elements : 942
Stream size : 20.6 KiB (0%)
Language : Czech
Default : No
Forced : No

Text #9
ID : 12
Format : UTF-8
Codec ID : S_TEXT/UTF8
Codec ID/Info : UTF-8 Plain Text
Duration : 2 h 6 min
Bit rate : 23 b/s
Count of elements : 901
Stream size : 21.6 KiB (0%)
Language : Danish
Default : No
Forced : No

Text #10
ID : 13
Format : UTF-8
Codec ID : S_TEXT/UTF8
Codec ID/Info : UTF-8 Plain Text
Duration : 2 h 5 min
Bit rate : 16 b/s
Count of elements : 584
Stream size : 15.2 KiB (0%)
Language : German
Default : No
Forced : No

Text #11
ID : 14
Format : UTF-8
Codec ID : S_TEXT/UTF8
Codec ID/Info : UTF-8 Plain Text
Duration : 2 h 5 min
Bit rate : 41 b/s
Count of elements : 918
Stream size : 38.4 KiB (0%)
Language : Greek
Default : No
Forced : No

Text #12
ID : 15
Format : UTF-8
Codec ID : S_TEXT/UTF8
Codec ID/Info : UTF-8 Plain Text
Duration : 2 h 6 min
Bit rate : 24 b/s
Count of elements : 921
Stream size : 22.6 KiB (0%)
Language : Spanish
Default : No
Forced : No

Text #13
ID : 16
Format : UTF-8
Codec ID : S_TEXT/UTF8
Codec ID/Info : UTF-8 Plain Text
Duration : 2 h 6 min
Bit rate : 24 b/s
Count of elements : 937
Stream size : 22.8 KiB (0%)
Title : European
Language : Spanish
Default : No
Forced : No

Text #14
ID : 17
Format : UTF-8
Codec ID : S_TEXT/UTF8
Codec ID/Info : UTF-8 Plain Text
Duration : 2 h 6 min
Bit rate : 23 b/s
Count of elements : 791
Stream size : 21.8 KiB (0%)
Language : Finnish
Default : No
Forced : No

Text #15
ID : 18
Format : UTF-8
Codec ID : S_TEXT/UTF8
Codec ID/Info : UTF-8 Plain Text
Duration : 2 h 6 min
Bit rate : 23 b/s
Count of elements : 844
Stream size : 22.1 KiB (0%)
Language : French
Default : No
Forced : No

Text #16
ID : 19
Format : UTF-8
Codec ID : S_TEXT/UTF8
Codec ID/Info : UTF-8 Plain Text
Duration : 2 h 6 min
Bit rate : 39 b/s
Count of elements : 959
Stream size : 37.1 KiB (0%)
Language : Hebrew
Default : No
Forced : No

Text #17
ID : 20
Format : UTF-8
Codec ID : S_TEXT/UTF8
Codec ID/Info : UTF-8 Plain Text
Duration : 2 h 6 min
Bit rate : 20 b/s
Count of elements : 912
Stream size : 19.4 KiB (0%)
Language : Croatian
Default : No
Forced : No

Text #18
ID : 21
Format : UTF-8
Codec ID : S_TEXT/UTF8
Codec ID/Info : UTF-8 Plain Text
Duration : 2 h 6 min
Bit rate : 23 b/s
Count of elements : 902
Stream size : 22.0 KiB (0%)
Language : Hungarian
Default : No
Forced : No

Text #19
ID : 22
Format : UTF-8
Codec ID : S_TEXT/UTF8
Codec ID/Info : UTF-8 Plain Text
Duration : 2 h 6 min
Bit rate : 25 b/s
Count of elements : 929
Stream size : 23.3 KiB (0%)
Language : Indonesian
Default : No
Forced : No

Text #20
ID : 23
Format : UTF-8
Codec ID : S_TEXT/UTF8
Codec ID/Info : UTF-8 Plain Text
Duration : 2 h 6 min
Bit rate : 22 b/s
Count of elements : 888
Stream size : 20.8 KiB (0%)
Language : Italian
Default : No
Forced : No

Text #21
ID : 24
Format : UTF-8
Codec ID : S_TEXT/UTF8
Codec ID/Info : UTF-8 Plain Text
Duration : 2 h 6 min
Bit rate : 24 b/s
Count of elements : 935
Stream size : 22.5 KiB (0%)
Language : Japanese
Default : No
Forced : No

Text #22
ID : 25
Format : UTF-8
Codec ID : S_TEXT/UTF8
Codec ID/Info : UTF-8 Plain Text
Duration : 2 h 6 min
Bit rate : 32 b/s
Count of elements : 980
Stream size : 29.9 KiB (0%)
Language : Korean
Default : No
Forced : No

Text #23
ID : 26
Format : UTF-8
Codec ID : S_TEXT/UTF8
Codec ID/Info : UTF-8 Plain Text
Duration : 2 h 6 min
Bit rate : 23 b/s
Count of elements : 931
Stream size : 22.0 KiB (0%)
Language : Malay
Default : No
Forced : No

Text #24
ID : 27
Format : UTF-8
Codec ID : S_TEXT/UTF8
Codec ID/Info : UTF-8 Plain Text
Duration : 2 h 6 min
Bit rate : 22 b/s
Count of elements : 841
Stream size : 21.1 KiB (0%)
Language : Norwegian Bokmal
Default : No
Forced : No

Text #25
ID : 28
Format : UTF-8
Codec ID : S_TEXT/UTF8
Codec ID/Info : UTF-8 Plain Text
Duration : 2 h 6 min
Bit rate : 22 b/s
Count of elements : 852
Stream size : 20.5 KiB (0%)
Language : Polish
Default : No
Forced : No

Text #26
ID : 29
Format : UTF-8
Codec ID : S_TEXT/UTF8
Codec ID/Info : UTF-8 Plain Text
Duration : 2 h 6 min
Bit rate : 24 b/s
Count of elements : 902
Stream size : 22.4 KiB (0%)
Language : Portuguese
Default : No
Forced : No

Text #27
ID : 30
Format : UTF-8
Codec ID : S_TEXT/UTF8
Codec ID/Info : UTF-8 Plain Text
Duration : 2 h 0 min
Bit rate : 25 b/s
Count of elements : 912
Stream size : 22.1 KiB (0%)
Title : Brazilian
Language : Portuguese
Default : No
Forced : No

Text #28
ID : 31
Format : UTF-8
Codec ID : S_TEXT/UTF8
Codec ID/Info : UTF-8 Plain Text
Duration : 2 h 6 min
Bit rate : 28 b/s
Count of elements : 927
Stream size : 26.1 KiB (0%)
Language : Romanian
Default : No
Forced : No

Text #29
ID : 32
Format : UTF-8
Codec ID : S_TEXT/UTF8
Codec ID/Info : UTF-8 Plain Text
Duration : 2 h 6 min
Bit rate : 38 b/s
Count of elements : 932
Stream size : 35.9 KiB (0%)
Language : Russian
Default : No
Forced : No

Text #30
ID : 33
Format : UTF-8
Codec ID : S_TEXT/UTF8
Codec ID/Info : UTF-8 Plain Text
Duration : 2 h 6 min
Bit rate : 23 b/s
Count of elements : 811
Stream size : 22.0 KiB (0%)
Language : Swedish
Default : No
Forced : No

Text #31
ID : 34
Format : UTF-8
Codec ID : S_TEXT/UTF8
Codec ID/Info : UTF-8 Plain Text
Duration : 2 h 6 min
Bit rate : 63 b/s
Count of elements : 929
Stream size : 59.1 KiB (0%)
Language : Thai
Default : No
Forced : No

Text #32
ID : 35
Format : UTF-8
Codec ID : S_TEXT/UTF8
Codec ID/Info : UTF-8 Plain Text
Duration : 2 h 0 min
Bit rate : 25 b/s
Count of elements : 909
Stream size : 22.9 KiB (0%)
Language : Turkish
Default : No
Forced : No

Text #33
ID : 36
Format : UTF-8
Codec ID : S_TEXT/UTF8
Codec ID/Info : UTF-8 Plain Text
Duration : 2 h 6 min
Bit rate : 40 b/s
Count of elements : 923
Stream size : 37.1 KiB (0%)
Language : Ukrainian
Default : No
Forced : No

Text #34
ID : 37
Format : UTF-8
Codec ID : S_TEXT/UTF8
Codec ID/Info : UTF-8 Plain Text
Duration : 2 h 6 min
Bit rate : 36 b/s
Count of elements : 905
Stream size : 34.3 KiB (0%)
Language : Vietnamese
Default : No
Forced : No

Text #35
ID : 38
Format : UTF-8
Codec ID : S_TEXT/UTF8
Codec ID/Info : UTF-8 Plain Text
Duration : 2 h 6 min
Bit rate : 25 b/s
Count of elements : 918
Stream size : 23.4 KiB (0%)
Title : Simplified
Language : Chinese
Default : No
Forced : No

Text #36
ID : 39
Format : UTF-8
Codec ID : S_TEXT/UTF8
Codec ID/Info : UTF-8 Plain Text
Duration : 2 h 6 min
Bit rate : 26 b/s
Count of elements : 1038
Stream size : 25.0 KiB (0%)
Title : Traditional
Language : Chinese
Default : No
Forced : No

[collapse]

Download Link(s)

Download

Direct download files get automatically deleted after a month or so. Posted on : 10/16/2021

[collapse]
Magnet Link

Magnet

The.Forgotten.Battle.2020.1080p.WEB.h264-RUMOUR-5.23 GB

[collapse]

Media information

General
Format : Matroska
Format version : Version 4
File size : 1.15 GiB
Duration : 2 h 7 min
Overall bit rate : 1 287 kb/s
Movie name : The.Forgotten.Battle.A.K.A.De.slag.om.de.Schelde.2020.DUAL-AUDIO.DUT-ENG.720p.10bit.WEBRip.6CH.x265.HEVC

Video
ID : 1
Format : HEVC
Format/Info : High Efficiency Video Coding
Format profile : Main [email protected]@Main
Codec ID : V_MPEGH/ISO/HEVC
Duration : 2 h 7 min
Bit rate : 839 kb/s
Width : 1 280 pixels
Height : 536 pixels
Display aspect ratio : 2.40:1
Frame rate mode : Constant
Frame rate : 24.000 FPS
Color space : YUV
Chroma subsampling : 4:2:0
Bit depth : 10 bits
Bits/(Pixel*Frame) : 0.051
Stream size : 765 MiB (65%)
Default : Yes
Forced : No

Audio #1
ID : 2
Format : AAC LC SBR
Commercial name : HE-AAC
Format settings : Explicit
Codec ID : A_AAC-2
Duration : 2 h 7 min
Bit rate : 221 kb/s
Channel(s) : 6 channels
Channel layout : C L R Ls Rs LFE
Sampling rate : 48.0 kHz
Frame rate : 23.438 FPS (2048 SPF)
Compression mode : Lossy
Delay relative to video : 23 ms
Stream size : 202 MiB (17%)
Language : Dutch
Default : Yes
Forced : No

Audio #2
ID : 3
Format : AAC LC SBR
Commercial name : HE-AAC
Format settings : Explicit
Codec ID : A_AAC-2
Duration : 2 h 7 min
Bit rate : 221 kb/s
Channel(s) : 6 channels
Channel layout : C L R Ls Rs LFE
Sampling rate : 48.0 kHz
Frame rate : 23.438 FPS (2048 SPF)
Compression mode : Lossy
Delay relative to video : 23 ms
Stream size : 202 MiB (17%)
Language : English
Default : No
Forced : No

Text #1
ID : 4
Format : UTF-8
Codec ID : S_TEXT/UTF8
Codec ID/Info : UTF-8 Plain Text
Duration : 1 h 59 min
Bit rate : 32 b/s
Count of elements : 1175
Stream size : 29.0 KiB (0%)
Title : SDH
Language : English
Default : Yes
Forced : No

Text #2
ID : 5
Format : UTF-8
Codec ID : S_TEXT/UTF8
Codec ID/Info : UTF-8 Plain Text
Duration : 2 h 4 min
Bit rate : 8 b/s
Count of elements : 283
Stream size : 7.61 KiB (0%)
Title : Forced
Language : English
Default : No
Forced : Yes

Text #3
ID : 6
Format : UTF-8
Codec ID : S_TEXT/UTF8
Codec ID/Info : UTF-8 Plain Text
Duration : 2 h 4 min
Bit rate : 14 b/s
Count of elements : 528
Stream size : 13.5 KiB (0%)
Language : English
Default : No
Forced : No

Text #4
ID : 7
Format : UTF-8
Codec ID : S_TEXT/UTF8
Codec ID/Info : UTF-8 Plain Text
Duration : 1 h 58 min
Bit rate : 26 b/s
Count of elements : 952
Stream size : 23.3 KiB (0%)
Language : English
Default : No
Forced : No

Text #5
ID : 8
Format : UTF-8
Codec ID : S_TEXT/UTF8
Codec ID/Info : UTF-8 Plain Text
Duration : 1 h 49 min
Bit rate : 19 b/s
Count of elements : 546
Stream size : 15.2 KiB (0%)
Title : Forced
Language : Dutch
Default : No
Forced : No

Text #6
ID : 9
Format : UTF-8
Codec ID : S_TEXT/UTF8
Codec ID/Info : UTF-8 Plain Text
Duration : 2 h 2 min
Bit rate : 32 b/s
Count of elements : 1097
Stream size : 29.2 KiB (0%)
Title : SDH
Language : Dutch
Default : No
Forced : No

Text #7
ID : 10
Format : UTF-8
Codec ID : S_TEXT/UTF8
Codec ID/Info : UTF-8 Plain Text
Duration : 2 h 6 min
Bit rate : 43 b/s
Count of elements : 928
Stream size : 40.0 KiB (0%)
Language : Arabic
Default : No
Forced : No

Text #8
ID : 11
Format : UTF-8
Codec ID : S_TEXT/UTF8
Codec ID/Info : UTF-8 Plain Text
Duration : 2 h 6 min
Bit rate : 22 b/s
Count of elements : 942
Stream size : 20.6 KiB (0%)
Language : Czech
Default : No
Forced : No

Text #9
ID : 12
Format : UTF-8
Codec ID : S_TEXT/UTF8
Codec ID/Info : UTF-8 Plain Text
Duration : 2 h 6 min
Bit rate : 23 b/s
Count of elements : 901
Stream size : 21.6 KiB (0%)
Language : Danish
Default : No
Forced : No

Text #10
ID : 13
Format : UTF-8
Codec ID : S_TEXT/UTF8
Codec ID/Info : UTF-8 Plain Text
Duration : 2 h 5 min
Bit rate : 16 b/s
Count of elements : 584
Stream size : 15.2 KiB (0%)
Language : German
Default : No
Forced : No

Text #11
ID : 14
Format : UTF-8
Codec ID : S_TEXT/UTF8
Codec ID/Info : UTF-8 Plain Text
Duration : 2 h 5 min
Bit rate : 41 b/s
Count of elements : 918
Stream size : 38.4 KiB (0%)
Language : Greek
Default : No
Forced : No

Text #12
ID : 15
Format : UTF-8
Codec ID : S_TEXT/UTF8
Codec ID/Info : UTF-8 Plain Text
Duration : 2 h 6 min
Bit rate : 24 b/s
Count of elements : 921
Stream size : 22.6 KiB (0%)
Language : Spanish
Default : No
Forced : No

Text #13
ID : 16
Format : UTF-8
Codec ID : S_TEXT/UTF8
Codec ID/Info : UTF-8 Plain Text
Duration : 2 h 6 min
Bit rate : 24 b/s
Count of elements : 937
Stream size : 22.8 KiB (0%)
Title : European
Language : Spanish
Default : No
Forced : No

Text #14
ID : 17
Format : UTF-8
Codec ID : S_TEXT/UTF8
Codec ID/Info : UTF-8 Plain Text
Duration : 2 h 6 min
Bit rate : 23 b/s
Count of elements : 791
Stream size : 21.8 KiB (0%)
Language : Finnish
Default : No
Forced : No

Text #15
ID : 18
Format : UTF-8
Codec ID : S_TEXT/UTF8
Codec ID/Info : UTF-8 Plain Text
Duration : 2 h 6 min
Bit rate : 23 b/s
Count of elements : 844
Stream size : 22.1 KiB (0%)
Language : French
Default : No
Forced : No

Text #16
ID : 19
Format : UTF-8
Codec ID : S_TEXT/UTF8
Codec ID/Info : UTF-8 Plain Text
Duration : 2 h 6 min
Bit rate : 39 b/s
Count of elements : 959
Stream size : 37.1 KiB (0%)
Language : Hebrew
Default : No
Forced : No

Text #17
ID : 20
Format : UTF-8
Codec ID : S_TEXT/UTF8
Codec ID/Info : UTF-8 Plain Text
Duration : 2 h 6 min
Bit rate : 20 b/s
Count of elements : 912
Stream size : 19.4 KiB (0%)
Language : Croatian
Default : No
Forced : No

Text #18
ID : 21
Format : UTF-8
Codec ID : S_TEXT/UTF8
Codec ID/Info : UTF-8 Plain Text
Duration : 2 h 6 min
Bit rate : 23 b/s
Count of elements : 902
Stream size : 22.0 KiB (0%)
Language : Hungarian
Default : No
Forced : No

Text #19
ID : 22
Format : UTF-8
Codec ID : S_TEXT/UTF8
Codec ID/Info : UTF-8 Plain Text
Duration : 2 h 6 min
Bit rate : 25 b/s
Count of elements : 929
Stream size : 23.3 KiB (0%)
Language : Indonesian
Default : No
Forced : No

Text #20
ID : 23
Format : UTF-8
Codec ID : S_TEXT/UTF8
Codec ID/Info : UTF-8 Plain Text
Duration : 2 h 6 min
Bit rate : 22 b/s
Count of elements : 888
Stream size : 20.8 KiB (0%)
Language : Italian
Default : No
Forced : No

Text #21
ID : 24
Format : UTF-8
Codec ID : S_TEXT/UTF8
Codec ID/Info : UTF-8 Plain Text
Duration : 2 h 6 min
Bit rate : 24 b/s
Count of elements : 935
Stream size : 22.5 KiB (0%)
Language : Japanese
Default : No
Forced : No

Text #22
ID : 25
Format : UTF-8
Codec ID : S_TEXT/UTF8
Codec ID/Info : UTF-8 Plain Text
Duration : 2 h 6 min
Bit rate : 32 b/s
Count of elements : 980
Stream size : 29.9 KiB (0%)
Language : Korean
Default : No
Forced : No

Text #23
ID : 26
Format : UTF-8
Codec ID : S_TEXT/UTF8
Codec ID/Info : UTF-8 Plain Text
Duration : 2 h 6 min
Bit rate : 23 b/s
Count of elements : 931
Stream size : 22.0 KiB (0%)
Language : Malay
Default : No
Forced : No

Text #24
ID : 27
Format : UTF-8
Codec ID : S_TEXT/UTF8
Codec ID/Info : UTF-8 Plain Text
Duration : 2 h 6 min
Bit rate : 22 b/s
Count of elements : 841
Stream size : 21.1 KiB (0%)
Language : Norwegian Bokmal
Default : No
Forced : No

Text #25
ID : 28
Format : UTF-8
Codec ID : S_TEXT/UTF8
Codec ID/Info : UTF-8 Plain Text
Duration : 2 h 6 min
Bit rate : 22 b/s
Count of elements : 852
Stream size : 20.5 KiB (0%)
Language : Polish
Default : No
Forced : No

Text #26
ID : 29
Format : UTF-8
Codec ID : S_TEXT/UTF8
Codec ID/Info : UTF-8 Plain Text
Duration : 2 h 6 min
Bit rate : 24 b/s
Count of elements : 902
Stream size : 22.4 KiB (0%)
Language : Portuguese
Default : No
Forced : No

Text #27
ID : 30
Format : UTF-8
Codec ID : S_TEXT/UTF8
Codec ID/Info : UTF-8 Plain Text
Duration : 2 h 0 min
Bit rate : 25 b/s
Count of elements : 912
Stream size : 22.1 KiB (0%)
Title : Brazilian
Language : Portuguese
Default : No
Forced : No

Text #28
ID : 31
Format : UTF-8
Codec ID : S_TEXT/UTF8
Codec ID/Info : UTF-8 Plain Text
Duration : 2 h 6 min
Bit rate : 28 b/s
Count of elements : 927
Stream size : 26.1 KiB (0%)
Language : Romanian
Default : No
Forced : No

Text #29
ID : 32
Format : UTF-8
Codec ID : S_TEXT/UTF8
Codec ID/Info : UTF-8 Plain Text
Duration : 2 h 6 min
Bit rate : 38 b/s
Count of elements : 932
Stream size : 35.9 KiB (0%)
Language : Russian
Default : No
Forced : No

Text #30
ID : 33
Format : UTF-8
Codec ID : S_TEXT/UTF8
Codec ID/Info : UTF-8 Plain Text
Duration : 2 h 6 min
Bit rate : 23 b/s
Count of elements : 811
Stream size : 22.0 KiB (0%)
Language : Swedish
Default : No
Forced : No

Text #31
ID : 34
Format : UTF-8
Codec ID : S_TEXT/UTF8
Codec ID/Info : UTF-8 Plain Text
Duration : 2 h 6 min
Bit rate : 63 b/s
Count of elements : 929
Stream size : 59.1 KiB (0%)
Language : Thai
Default : No
Forced : No

Text #32
ID : 35
Format : UTF-8
Codec ID : S_TEXT/UTF8
Codec ID/Info : UTF-8 Plain Text
Duration : 2 h 0 min
Bit rate : 25 b/s
Count of elements : 909
Stream size : 22.9 KiB (0%)
Language : Turkish
Default : No
Forced : No

Text #33
ID : 36
Format : UTF-8
Codec ID : S_TEXT/UTF8
Codec ID/Info : UTF-8 Plain Text
Duration : 2 h 6 min
Bit rate : 40 b/s
Count of elements : 923
Stream size : 37.1 KiB (0%)
Language : Ukrainian
Default : No
Forced : No

Text #34
ID : 37
Format : UTF-8
Codec ID : S_TEXT/UTF8
Codec ID/Info : UTF-8 Plain Text
Duration : 2 h 6 min
Bit rate : 36 b/s
Count of elements : 905
Stream size : 34.3 KiB (0%)
Language : Vietnamese
Default : No
Forced : No

Text #35
ID : 38
Format : UTF-8
Codec ID : S_TEXT/UTF8
Codec ID/Info : UTF-8 Plain Text
Duration : 2 h 6 min
Bit rate : 25 b/s
Count of elements : 918
Stream size : 23.4 KiB (0%)
Title : Simplified
Language : Chinese
Default : No
Forced : No

Text #36
ID : 39
Format : UTF-8
Codec ID : S_TEXT/UTF8
Codec ID/Info : UTF-8 Plain Text
Duration : 2 h 6 min
Bit rate : 26 b/s
Count of elements : 1038
Stream size : 25.0 KiB (0%)
Title : Traditional
Language : Chinese
Default : No
Forced : No

[collapse]

Download Link(s)

Download

Direct download files get automatically deleted after a month or so. Posted on : 10/16/2021

[collapse]
Magnet Link

Magnet

The.Forgotten.Battle.2020.1080p.WEB.h264-RUMOUR-5.23 GB

[collapse]

You may also like...

error: nah :p~