The Butterfly Effect (2004)

R | 1h 53min | Drama, Sci-Fi, Thriller | 23 January 2004 (USA)

Evan Treborn suffers blackouts during significant events of his life. As he grows up, he finds a way to remember these lost memories and a supernatural way to alter his life by reading his journal.

Watch trailer

Media information

General
Format : Matroska
Format version : Version 4
File size : 1.91 GiB
Duration : 1 h 59 min
Overall bit rate : 2 286 kb/s
Movie name : The.Butterfly.Effect.2004.DC.1080p.10bit.BluRay.7CH.x265.HEVC

Video
ID : 1
Format : HEVC
Format/Info : High Efficiency Video Coding
Format profile : Main [email protected]@Main
Codec ID : V_MPEGH/ISO/HEVC
Duration : 1 h 59 min
Bit rate : 1 972 kb/s
Width : 1 920 pixels
Height : 1 080 pixels
Display aspect ratio : 16:9
Frame rate mode : Constant
Frame rate : 23.976 (24000/1001) FPS
Color space : YUV
Chroma subsampling : 4:2:0
Bit depth : 10 bits
Bits/(Pixel*Frame) : 0.040
Stream size : 1.65 GiB (86%)
Default : Yes
Forced : No
Color range : Limited
Color primaries : BT.709
Transfer characteristics : BT.709
Matrix coefficients : BT.709

Audio
ID : 2
Format : AAC LC
Codec ID : A_AAC-2
Duration : 1 h 59 min
Bit rate : 255 kb/s
Channel(s) : 7 channels
Channel layout : L R C Cb Lb Rb Cb
Sampling rate : 48.0 kHz
Frame rate : 46.875 FPS (1024 SPF)
Compression mode : Lossy
Delay relative to video : -1 ms
Stream size : 218 MiB (11%)
Language : English
Default : Yes
Forced : No

Text #1
ID : 3
Format : PGS
Muxing mode : zlib
Codec ID : S_HDMV/PGS
Duration : 1 h 58 min
Bit rate : 32.7 kb/s
Count of elements : 3194
Stream size : 27.7 MiB (1%)
Language : English
Default : Yes
Forced : Yes

Text #2
ID : 4
Format : PGS
Muxing mode : zlib
Codec ID : S_HDMV/PGS
Duration : 1 h 59 min
Bit rate : 34.1 kb/s
Count of elements : 3176
Stream size : 29.0 MiB (1%)
Language : German
Default : No
Forced : No

Text #3
ID : 5
Format : PGS
Muxing mode : zlib
Codec ID : S_HDMV/PGS
Duration : 1 h 59 min
Bit rate : 28.5 kb/s
Count of elements : 2810
Stream size : 24.2 MiB (1%)
Language : Spanish
Default : No
Forced : No

Text #4
ID : 6
Format : PGS
Muxing mode : zlib
Codec ID : S_HDMV/PGS
Duration : 1 h 59 min
Bit rate : 34.1 kb/s
Count of elements : 3176
Stream size : 29.0 MiB (1%)
Language : German
Default : No
Forced : No

[collapse]
Download Link(s)

Download

Direct download files get automatically deleted after a month or so. Posted on : 03/28/2021

[collapse]
Magnet Link

Magnet

The.Butterfly.Effect.2004.DC.1080p.BluRay.REMUX.AVC.DTS-HD.MA.6.1-FGT-20.16 GB

[collapse]

Media information

General
Format : Matroska
Format version : Version 4
File size : 982 MiB
Duration : 1 h 59 min
Overall bit rate : 1 148 kb/s
Movie name : The.Butterfly.Effect.2004.DC.720p.10bit.BluRay.6CH.x265.HEVC

Video
ID : 1
Format : HEVC
Format/Info : High Efficiency Video Coding
Format profile : Main [email protected]@Main
Codec ID : V_MPEGH/ISO/HEVC
Duration : 1 h 59 min
Bit rate : 897 kb/s
Width : 1 280 pixels
Height : 720 pixels
Display aspect ratio : 16:9
Frame rate mode : Constant
Frame rate : 23.976 (24000/1001) FPS
Color space : YUV
Chroma subsampling : 4:2:0
Bit depth : 10 bits
Bits/(Pixel*Frame) : 0.041
Stream size : 767 MiB (78%)
Default : Yes
Forced : No
Color range : Limited
Color primaries : BT.709
Transfer characteristics : BT.709
Matrix coefficients : BT.709

Audio
ID : 2
Format : AAC LC
Codec ID : A_AAC-2
Duration : 1 h 59 min
Bit rate : 192 kb/s
Channel(s) : 6 channels
Channel layout : C L R Ls Rs LFE
Sampling rate : 48.0 kHz
Frame rate : 46.875 FPS (1024 SPF)
Compression mode : Lossy
Delay relative to video : -1 ms
Stream size : 164 MiB (17%)
Language : English
Default : Yes
Forced : No

Text #1
ID : 3
Format : PGS
Muxing mode : zlib
Codec ID : S_HDMV/PGS
Duration : 1 h 58 min
Bit rate : 32.7 kb/s
Count of elements : 3194
Stream size : 27.7 MiB (3%)
Language : English
Default : Yes
Forced : Yes

Text #2
ID : 4
Format : PGS
Muxing mode : zlib
Codec ID : S_HDMV/PGS
Duration : 1 h 59 min
Bit rate : 34.1 kb/s
Count of elements : 3176
Stream size : 29.0 MiB (3%)
Language : German
Default : No
Forced : No

Text #3
ID : 5
Format : PGS
Muxing mode : zlib
Codec ID : S_HDMV/PGS
Duration : 1 h 59 min
Bit rate : 28.5 kb/s
Count of elements : 2810
Stream size : 24.2 MiB (2%)
Language : Spanish
Default : No
Forced : No

Text #4
ID : 6
Format : PGS
Muxing mode : zlib
Codec ID : S_HDMV/PGS
Duration : 1 h 59 min
Bit rate : 34.1 kb/s
Count of elements : 3176
Stream size : 29.0 MiB (3%)
Language : German
Default : No
Forced : No

[collapse]
Download Link(s)

Download

Direct download files get automatically deleted after a month or so. Posted on : 03/28/2021

[collapse]
Magnet Link

Magnet

The.Butterfly.Effect.2004.DC.1080p.BluRay.REMUX.AVC.DTS-HD.MA.6.1-FGT-20.16 GB

[collapse]

You may also like...

error: nah :p~