The Bodyguard (1992)

R | 2h 9min | Action, Drama, Music

A former Secret Service agent takes on the job of bodyguard to an R&B singer, whose lifestyle is most unlike a President’s.

Watch trailer

Media information

General
Format : Matroska
Format version : Version 4
File size : 2.49 GiB
Duration : 2 h 9 min
Overall bit rate : 2 761 kb/s
Frame rate : 23.976 FPS
Movie name : The.Bodyguard.1992.1080p.10bit.BluRay.6CH.x265.HEVC

Video
ID : 1
Format : HEVC
Format/Info : High Efficiency Video Coding
Format profile : Main 10@L4@Main
Codec ID : V_MPEGH/ISO/HEVC
Duration : 2 h 9 min
Bit rate : 2 377 kb/s
Width : 1 920 pixels
Height : 1 080 pixels
Display aspect ratio : 16:9
Frame rate mode : Constant
Frame rate : 23.976 (24000/1001) FPS
Color space : YUV
Chroma subsampling : 4:2:0 (Type 0)
Bit depth : 10 bits
Bits/(Pixel*Frame) : 0.048
Stream size : 2.15 GiB (86%)
Default : Yes
Forced : No
Color range : Limited

Audio
ID : 2
Format : AAC LC
Codec ID : A_AAC-2
Duration : 2 h 9 min
Bit rate : 384 kb/s
Channel(s) : 6 channels
Channel layout : L R C Cb Lb Rb
Sampling rate : 48.0 kHz
Frame rate : 46.875 FPS (1024 SPF)
Compression mode : Lossy
Stream size : 353 MiB (14%)
Language : English
Default : Yes
Forced : No

Text
ID : 3
Format : UTF-8
Codec ID : S_TEXT/UTF8
Codec ID/Info : UTF-8 Plain Text
Duration : 2 h 3 min
Bit rate : 51 b/s
Frame rate : 0.200 FPS
Count of elements : 1484
Stream size : 46.9 KiB (0%)
Language : English
Default : Yes
Forced : No

[collapse]
Download Link(s)

Download

Direct download files get automatically deleted after a month or so. Posted on : 06/11/2024

[collapse]

Media information

General
Format : Matroska
Format version : Version 4
File size : 1.29 GiB
Duration : 2 h 9 min
Overall bit rate : 1 433 kb/s
Frame rate : 23.976 FPS
Movie name : The.Bodyguard.1992.720p.10bit.BluRay.6CH.x265.HEVC

Video
ID : 1
Format : HEVC
Format/Info : High Efficiency Video Coding
Format profile : Main [email protected]@Main
Codec ID : V_MPEGH/ISO/HEVC
Duration : 2 h 9 min
Bit rate : 1 144 kb/s
Width : 1 280 pixels
Height : 720 pixels
Display aspect ratio : 16:9
Frame rate mode : Constant
Frame rate : 23.976 (24000/1001) FPS
Color space : YUV
Chroma subsampling : 4:2:0 (Type 0)
Bit depth : 10 bits
Bits/(Pixel*Frame) : 0.052
Stream size : 1.03 GiB (80%)
Default : Yes
Forced : No
Color range : Limited

Audio
ID : 2
Format : AAC LC
Codec ID : A_AAC-2
Duration : 2 h 9 min
Bit rate : 288 kb/s
Channel(s) : 6 channels
Channel layout : L R C Cb Lb Rb
Sampling rate : 48.0 kHz
Frame rate : 46.875 FPS (1024 SPF)
Compression mode : Lossy
Stream size : 265 MiB (20%)
Language : English
Default : Yes
Forced : No

Text
ID : 3
Format : UTF-8
Codec ID : S_TEXT/UTF8
Codec ID/Info : UTF-8 Plain Text
Duration : 2 h 3 min
Bit rate : 51 b/s
Frame rate : 0.200 FPS
Count of elements : 1484
Stream size : 46.9 KiB (0%)
Language : English
Default : Yes
Forced : No

[collapse]
Download Link(s)

Download

Direct download files get automatically deleted after a month or so. Posted on : 06/11/2024

[collapse]

Magnet Link

Magnet

The.Bodyguard.1992.1080p.BluRay.X264-7SinS-8.74 GB

[collapse]

You may also like...

error: nah :p~