The Blair Witch Project (1999)

R | 1h 21min | Horror, Mystery

Three film students vanish after traveling into a Maryland forest to film a documentary on the local Blair Witch legend, leaving only their footage behind.

Watch trailer

Media information

General
Format : Matroska
Format version : Version 4
File size : 1.31 GiB
Duration : 1 h 21 min
Overall bit rate : 2 311 kb/s
Frame rate : 23.976 FPS
Movie name : The.Blair.Witch.Project.1999.1080p.10bit.BluRay.2CH.x265.HEVC

Video
ID : 1
Format : HEVC
Format/Info : High Efficiency Video Coding
Format profile : Main 10@L4@Main
Codec ID : V_MPEGH/ISO/HEVC
Duration : 1 h 21 min
Bit rate : 1 985 kb/s
Width : 1 920 pixels
Height : 1 080 pixels
Display aspect ratio : 16:9
Frame rate mode : Constant
Frame rate : 23.976 (24000/1001) FPS
Color space : YUV
Chroma subsampling : 4:2:0 (Type 0)
Bit depth : 10 bits
Bits/(Pixel*Frame) : 0.040
Stream size : 1.13 GiB (86%)
Default : Yes
Forced : No
Color range : Limited

Audio
ID : 2
Format : AAC LC
Codec ID : A_AAC-2
Duration : 1 h 21 min
Bit rate : 313 kb/s
Channel(s) : 2 channels
Channel layout : L R
Sampling rate : 48.0 kHz
Frame rate : 46.875 FPS (1024 SPF)
Compression mode : Lossy
Stream size : 182 MiB (14%)
Language : English
Default : Yes
Forced : No

Text #1
ID : 3
Format : ASS
Codec ID : S_TEXT/ASS
Duration : 1 h 16 min
Bit rate : 141 b/s
Frame rate : 0.292 FPS
Count of elements : 1349
Compression mode : Lossless
Stream size : 79.6 KiB (0%)
Language : English
Default : Yes
Forced : No

Text #2
ID : 4
Format : PGS
Muxing mode : zlib
Codec ID : S_HDMV/PGS
Duration : 1 h 15 min
Bit rate : 36.2 kb/s
Frame rate : 0.449 FPS
Count of elements : 2046
Stream size : 19.7 MiB (1%)
Language : German
Default : No
Forced : No

[collapse]
Download Link(s)

Download

Direct download files get automatically deleted after a month or so. Posted on : 02/04/2024

[collapse]
Magnet Link

Magnet

The.Blair.Witch.Project.1999.1080p.BDRip.x265.DTS.HD.MA.2.0.Kira.SEV-7.0 GB

[collapse]

Media information

General
Format : Matroska
Format version : Version 4
File size : 726 MiB
Duration : 1 h 21 min
Overall bit rate : 1 248 kb/s
Frame rate : 23.976 FPS
Movie name : The.Blair.Witch.Project.1999.720p.10bit.BluRay.2CH.x265.HEVC

Video
ID : 1
Format : HEVC
Format/Info : High Efficiency Video Coding
Format profile : Main [email protected]@Main
Codec ID : V_MPEGH/ISO/HEVC
Duration : 1 h 21 min
Bit rate : 979 kb/s
Width : 1 280 pixels
Height : 720 pixels
Display aspect ratio : 16:9
Frame rate mode : Constant
Frame rate : 23.976 (24000/1001) FPS
Color space : YUV
Chroma subsampling : 4:2:0 (Type 0)
Bit depth : 10 bits
Bits/(Pixel*Frame) : 0.044
Stream size : 570 MiB (78%)
Default : Yes
Forced : No
Color range : Limited

Audio
ID : 2
Format : AAC LC
Codec ID : A_AAC-2
Duration : 1 h 21 min
Bit rate : 255 kb/s
Channel(s) : 2 channels
Channel layout : L R
Sampling rate : 48.0 kHz
Frame rate : 46.875 FPS (1024 SPF)
Compression mode : Lossy
Stream size : 148 MiB (20%)
Language : English
Default : Yes
Forced : No

Text #1
ID : 3
Format : ASS
Codec ID : S_TEXT/ASS
Duration : 1 h 16 min
Bit rate : 141 b/s
Frame rate : 0.292 FPS
Count of elements : 1349
Compression mode : Lossless
Stream size : 79.6 KiB (0%)
Language : English
Default : Yes
Forced : No

Text #2
ID : 4
Format : PGS
Muxing mode : zlib
Codec ID : S_HDMV/PGS
Duration : 1 h 15 min
Bit rate : 36.2 kb/s
Frame rate : 0.449 FPS
Count of elements : 2046
Stream size : 19.7 MiB (3%)
Language : German
Default : No
Forced : No

[collapse]
Download Link(s)

Download

Direct download files get automatically deleted after a month or so. Posted on : 02/04/2024

[collapse]
Magnet Link

Magnet

The.Blair.Witch.Project.1999.1080p.BDRip.x265.DTS.HD.MA.2.0.Kira.SEV-7.0 GB

[collapse]

You may also like...

error: nah :p~