The Amazing Spider-Man (2012)

PG-13 | 2h 16min | Action, Adventure, Fantasy | 3 July 2012 (USA)

After Peter Parker is bitten by a genetically altered spider, he gains newfound, spider-like powers and ventures out to save the city from the machinations of a mysterious reptilian foe.

Watch trailer

Media information

General
Format : Matroska
Format version : Version 4
File size : 2.48 GiB
Duration : 2 h 16 min
Overall bit rate : 2 605 kb/s
Movie name : The.Amazing.Spider-Man.2012.1080p.10bit.BluRay.8CH.x265.HEVC

Video
ID : 1
Format : HEVC
Format/Info : High Efficiency Video Coding
Format profile : Main [email protected]@Main
Codec ID : V_MPEGH/ISO/HEVC
Duration : 2 h 16 min
Bit rate : 1 914 kb/s
Width : 1 920 pixels
Height : 808 pixels
Display aspect ratio : 2.40:1
Frame rate mode : Variable
Frame rate : 23.976 FPS
Color space : YUV
Chroma subsampling : 4:2:0 (Type 0)
Bit depth : 10 bits
Bits/(Pixel*Frame) : 0.051
Stream size : 1.82 GiB (73%)
Default : Yes
Forced : No
Color range : Limited

Audio
ID : 2
Format : AAC LC
Codec ID : A_AAC-2
Duration : 2 h 16 min
Bit rate : 384 kb/s
Channel(s) : 8 channels
Channel layout : C L R Ls Rs Lw Rw LFE
Sampling rate : 48.0 kHz
Frame rate : 46.875 FPS (1024 SPF)
Compression mode : Lossy
Stream size : 376 MiB (15%)
Language : English
Default : Yes
Forced : No

Text #1
ID : 3
Format : UTF-8
Codec ID : S_TEXT/UTF8
Codec ID/Info : UTF-8 Plain Text
Duration : 2 h 9 min
Bit rate : 43 b/s
Count of elements : 1528
Stream size : 40.8 KiB (0%)
Language : English
Default : Yes
Forced : No

Text #2
ID : 4
Format : PGS
Muxing mode : zlib
Codec ID : S_HDMV/PGS
Duration : 2 h 14 min
Bit rate : 28.4 kb/s
Count of elements : 3466
Stream size : 27.2 MiB (2%)
Language : English
Default : No
Forced : No

Text #3
ID : 5
Format : PGS
Muxing mode : zlib
Codec ID : S_HDMV/PGS
Duration : 2 h 15 min
Bit rate : 23.8 kb/s
Count of elements : 2720
Stream size : 23.0 MiB (1%)
Language : English
Default : No
Forced : No

Text #4
ID : 6
Format : PGS
Muxing mode : zlib
Codec ID : S_HDMV/PGS
Duration : 2 h 15 min
Bit rate : 28.1 kb/s
Count of elements : 3470
Stream size : 27.3 MiB (2%)
Language : English
Default : No
Forced : No

Text #5
ID : 7
Format : PGS
Muxing mode : zlib
Codec ID : S_HDMV/PGS
Duration : 2 h 15 min
Bit rate : 23.8 kb/s
Count of elements : 2726
Stream size : 23.0 MiB (1%)
Language : English
Default : No
Forced : No

Text #6
ID : 8
Format : PGS
Muxing mode : zlib
Codec ID : S_HDMV/PGS
Duration : 2 h 15 min
Bit rate : 19.1 kb/s
Count of elements : 3134
Stream size : 18.5 MiB (1%)
Language : Chinese
Default : No
Forced : No

Text #7
ID : 9
Format : PGS
Muxing mode : zlib
Codec ID : S_HDMV/PGS
Duration : 2 h 15 min
Bit rate : 22.6 kb/s
Count of elements : 3130
Stream size : 21.8 MiB (1%)
Language : Chinese
Default : No
Forced : No

Text #8
ID : 10
Format : PGS
Muxing mode : zlib
Codec ID : S_HDMV/PGS
Duration : 2 h 9 min
Bit rate : 21.3 kb/s
Count of elements : 3146
Stream size : 19.7 MiB (1%)
Language : Chinese
Default : No
Forced : No

Text #9
ID : 11
Format : PGS
Muxing mode : zlib
Codec ID : S_HDMV/PGS
Duration : 2 h 15 min
Bit rate : 18.5 kb/s
Count of elements : 2938
Stream size : 17.9 MiB (1%)
Language : Czech
Default : No
Forced : No

Text #10
ID : 12
Format : PGS
Muxing mode : zlib
Codec ID : S_HDMV/PGS
Duration : 2 h 15 min
Bit rate : 21.8 kb/s
Count of elements : 2946
Stream size : 21.1 MiB (1%)
Language : Danish
Default : No
Forced : No

Text #11
ID : 13
Format : PGS
Muxing mode : zlib
Codec ID : S_HDMV/PGS
Duration : 2 h 15 min
Bit rate : 20.8 kb/s
Count of elements : 3072
Stream size : 20.2 MiB (1%)
Language : Dutch
Default : No
Forced : No

Text #12
ID : 14
Format : PGS
Muxing mode : zlib
Codec ID : S_HDMV/PGS
Duration : 2 h 9 min
Bit rate : 23.2 kb/s
Count of elements : 3118
Stream size : 21.5 MiB (1%)
Language : Estonian
Default : No
Forced : No

Text #13
ID : 15
Format : PGS
Muxing mode : zlib
Codec ID : S_HDMV/PGS
Duration : 2 h 15 min
Bit rate : 19.1 kb/s
Count of elements : 2914
Stream size : 18.5 MiB (1%)
Language : Finnish
Default : No
Forced : No

Text #14
ID : 16
Format : PGS
Muxing mode : zlib
Codec ID : S_HDMV/PGS
Duration : 2 h 15 min
Bit rate : 18.6 kb/s
Count of elements : 2688
Stream size : 18.0 MiB (1%)
Language : French
Default : No
Forced : No

Text #15
ID : 17
Format : PGS
Muxing mode : zlib
Codec ID : S_HDMV/PGS
Duration : 2 h 15 min
Bit rate : 24.7 kb/s
Count of elements : 3118
Stream size : 23.9 MiB (1%)
Language : German
Default : No
Forced : No

Text #16
ID : 18
Format : PGS
Muxing mode : zlib
Codec ID : S_HDMV/PGS
Duration : 2 h 9 min
Bit rate : 24.1 kb/s
Count of elements : 2950
Stream size : 22.3 MiB (1%)
Language : Greek
Default : No
Forced : No

Text #17
ID : 19
Format : PGS
Muxing mode : zlib
Codec ID : S_HDMV/PGS
Duration : 2 h 15 min
Bit rate : 25.4 kb/s
Count of elements : 3120
Stream size : 24.6 MiB (1%)
Language : Italian
Default : No
Forced : No

Text #18
ID : 20
Format : PGS
Muxing mode : zlib
Codec ID : S_HDMV/PGS
Duration : 2 h 9 min
Bit rate : 17.3 kb/s
Count of elements : 2405
Stream size : 15.9 MiB (1%)
Language : Japanese
Default : No
Forced : No

Text #19
ID : 21
Format : PGS
Muxing mode : zlib
Codec ID : S_HDMV/PGS
Duration : 2 h 15 min
Bit rate : 14.7 kb/s
Count of elements : 3024
Stream size : 14.2 MiB (1%)
Language : Korean
Default : No
Forced : No

Text #20
ID : 22
Format : PGS
Muxing mode : zlib
Codec ID : S_HDMV/PGS
Duration : 2 h 9 min
Bit rate : 25.0 kb/s
Count of elements : 3128
Stream size : 23.1 MiB (1%)
Language : Lithuanian
Default : No
Forced : No

Text #21
ID : 23
Format : PGS
Muxing mode : zlib
Codec ID : S_HDMV/PGS
Duration : 2 h 15 min
Bit rate : 18.6 kb/s
Count of elements : 2906
Stream size : 17.9 MiB (1%)
Language : Norwegian
Default : No
Forced : No

Text #22
ID : 24
Format : PGS
Muxing mode : zlib
Codec ID : S_HDMV/PGS
Duration : 2 h 15 min
Bit rate : 21.6 kb/s
Count of elements : 2950
Stream size : 20.9 MiB (1%)
Language : Polish
Default : No
Forced : No

Text #23
ID : 25
Format : PGS
Muxing mode : zlib
Codec ID : S_HDMV/PGS
Duration : 2 h 9 min
Bit rate : 23.7 kb/s
Count of elements : 3094
Stream size : 21.9 MiB (1%)
Language : Portuguese
Default : No
Forced : No

Text #24
ID : 26
Format : PGS
Muxing mode : zlib
Codec ID : S_HDMV/PGS
Duration : 2 h 9 min
Bit rate : 23.8 kb/s
Count of elements : 2924
Stream size : 22.0 MiB (1%)
Language : Portuguese
Default : No
Forced : No

Text #25
ID : 27
Format : PGS
Muxing mode : zlib
Codec ID : S_HDMV/PGS
Duration : 2 h 15 min
Bit rate : 24.2 kb/s
Count of elements : 3100
Stream size : 23.4 MiB (1%)
Language : Romanian
Default : No
Forced : No

Text #26
ID : 28
Format : PGS
Muxing mode : zlib
Codec ID : S_HDMV/PGS
Duration : 2 h 9 min
Bit rate : 23.9 kb/s
Count of elements : 3048
Stream size : 22.1 MiB (1%)
Language : Russian
Default : No
Forced : No

Text #27
ID : 29
Format : PGS
Muxing mode : zlib
Codec ID : S_HDMV/PGS
Duration : 2 h 15 min
Bit rate : 21.4 kb/s
Count of elements : 2838
Stream size : 20.7 MiB (1%)
Language : Spanish
Default : No
Forced : No

Text #28
ID : 30
Format : PGS
Muxing mode : zlib
Codec ID : S_HDMV/PGS
Duration : 2 h 15 min
Bit rate : 22.4 kb/s
Count of elements : 3014
Stream size : 21.6 MiB (1%)
Language : Spanish
Default : No
Forced : No

Text #29
ID : 31
Format : PGS
Muxing mode : zlib
Codec ID : S_HDMV/PGS
Duration : 2 h 15 min
Bit rate : 17.8 kb/s
Count of elements : 2680
Stream size : 17.2 MiB (1%)
Language : Swedish
Default : No
Forced : No

Text #30
ID : 32
Format : PGS
Muxing mode : zlib
Codec ID : S_HDMV/PGS
Duration : 2 h 15 min
Bit rate : 21.4 kb/s
Count of elements : 3104
Stream size : 20.7 MiB (1%)
Language : Thai
Default : No
Forced : No

Text #31
ID : 33
Format : PGS
Muxing mode : zlib
Codec ID : S_HDMV/PGS
Duration : 2 h 9 min
Bit rate : 26.6 kb/s
Count of elements : 3084
Stream size : 24.6 MiB (1%)
Language : Turkish
Default : No
Forced : No

[collapse]
Download Link(s)

Download

Direct download files get automatically deleted after a month or so. Posted on : 11/24/2021

[collapse]
Magnet Link

Magnet

The.Amazing.Spider-Man.2012.1080p.BluRay.x264.TrueHD.7.1.Atmos-SWTYBLZ-14.31 GB

[collapse]

Media information

General
Format : Matroska
Format version : Version 4
File size : 1.69 GiB
Duration : 2 h 16 min
Overall bit rate : 1 777 kb/s
Movie name : The.Amazing.Spider-Man.2012.720p.10bit.BluRay.8CH.x265.HEVC

Video
ID : 1
Format : HEVC
Format/Info : High Efficiency Video Coding
Format profile : Main [email protected]@Main
Codec ID : V_MPEGH/ISO/HEVC
Duration : 2 h 16 min
Bit rate : 1 214 kb/s
Width : 1 280 pixels
Height : 536 pixels
Display aspect ratio : 2.40:1
Frame rate mode : Variable
Frame rate : 23.976 FPS
Color space : YUV
Chroma subsampling : 4:2:0 (Type 0)
Bit depth : 10 bits
Bits/(Pixel*Frame) : 0.074
Stream size : 1.16 GiB (68%)
Default : Yes
Forced : No
Color range : Limited

Audio
ID : 2
Format : AAC LC
Codec ID : A_AAC-2
Duration : 2 h 16 min
Bit rate : 257 kb/s
Channel(s) : 8 channels
Channel layout : C L R Ls Rs Lw Rw LFE
Sampling rate : 48.0 kHz
Frame rate : 46.875 FPS (1024 SPF)
Compression mode : Lossy
Stream size : 250 MiB (14%)
Language : English
Default : Yes
Forced : No

Text #1
ID : 3
Format : UTF-8
Codec ID : S_TEXT/UTF8
Codec ID/Info : UTF-8 Plain Text
Duration : 2 h 9 min
Bit rate : 43 b/s
Count of elements : 1528
Stream size : 40.8 KiB (0%)
Language : English
Default : Yes
Forced : No

Text #2
ID : 4
Format : PGS
Muxing mode : zlib
Codec ID : S_HDMV/PGS
Duration : 2 h 14 min
Bit rate : 28.4 kb/s
Count of elements : 3466
Stream size : 27.2 MiB (2%)
Language : English
Default : No
Forced : No

Text #3
ID : 5
Format : PGS
Muxing mode : zlib
Codec ID : S_HDMV/PGS
Duration : 2 h 15 min
Bit rate : 23.8 kb/s
Count of elements : 2720
Stream size : 23.0 MiB (1%)
Language : English
Default : No
Forced : No

Text #4
ID : 6
Format : PGS
Muxing mode : zlib
Codec ID : S_HDMV/PGS
Duration : 2 h 15 min
Bit rate : 28.1 kb/s
Count of elements : 3470
Stream size : 27.3 MiB (2%)
Language : English
Default : No
Forced : No

Text #5
ID : 7
Format : PGS
Muxing mode : zlib
Codec ID : S_HDMV/PGS
Duration : 2 h 15 min
Bit rate : 23.8 kb/s
Count of elements : 2726
Stream size : 23.0 MiB (1%)
Language : English
Default : No
Forced : No

Text #6
ID : 8
Format : PGS
Muxing mode : zlib
Codec ID : S_HDMV/PGS
Duration : 2 h 15 min
Bit rate : 19.1 kb/s
Count of elements : 3134
Stream size : 18.5 MiB (1%)
Language : Chinese
Default : No
Forced : No

Text #7
ID : 9
Format : PGS
Muxing mode : zlib
Codec ID : S_HDMV/PGS
Duration : 2 h 15 min
Bit rate : 22.6 kb/s
Count of elements : 3130
Stream size : 21.8 MiB (1%)
Language : Chinese
Default : No
Forced : No

Text #8
ID : 10
Format : PGS
Muxing mode : zlib
Codec ID : S_HDMV/PGS
Duration : 2 h 9 min
Bit rate : 21.3 kb/s
Count of elements : 3146
Stream size : 19.7 MiB (1%)
Language : Chinese
Default : No
Forced : No

Text #9
ID : 11
Format : PGS
Muxing mode : zlib
Codec ID : S_HDMV/PGS
Duration : 2 h 15 min
Bit rate : 18.5 kb/s
Count of elements : 2938
Stream size : 17.9 MiB (1%)
Language : Czech
Default : No
Forced : No

Text #10
ID : 12
Format : PGS
Muxing mode : zlib
Codec ID : S_HDMV/PGS
Duration : 2 h 15 min
Bit rate : 21.8 kb/s
Count of elements : 2946
Stream size : 21.1 MiB (1%)
Language : Danish
Default : No
Forced : No

Text #11
ID : 13
Format : PGS
Muxing mode : zlib
Codec ID : S_HDMV/PGS
Duration : 2 h 15 min
Bit rate : 20.8 kb/s
Count of elements : 3072
Stream size : 20.2 MiB (1%)
Language : Dutch
Default : No
Forced : No

Text #12
ID : 14
Format : PGS
Muxing mode : zlib
Codec ID : S_HDMV/PGS
Duration : 2 h 9 min
Bit rate : 23.2 kb/s
Count of elements : 3118
Stream size : 21.5 MiB (1%)
Language : Estonian
Default : No
Forced : No

Text #13
ID : 15
Format : PGS
Muxing mode : zlib
Codec ID : S_HDMV/PGS
Duration : 2 h 15 min
Bit rate : 19.1 kb/s
Count of elements : 2914
Stream size : 18.5 MiB (1%)
Language : Finnish
Default : No
Forced : No

Text #14
ID : 16
Format : PGS
Muxing mode : zlib
Codec ID : S_HDMV/PGS
Duration : 2 h 15 min
Bit rate : 18.6 kb/s
Count of elements : 2688
Stream size : 18.0 MiB (1%)
Language : French
Default : No
Forced : No

Text #15
ID : 17
Format : PGS
Muxing mode : zlib
Codec ID : S_HDMV/PGS
Duration : 2 h 15 min
Bit rate : 24.7 kb/s
Count of elements : 3118
Stream size : 23.9 MiB (1%)
Language : German
Default : No
Forced : No

Text #16
ID : 18
Format : PGS
Muxing mode : zlib
Codec ID : S_HDMV/PGS
Duration : 2 h 9 min
Bit rate : 24.1 kb/s
Count of elements : 2950
Stream size : 22.3 MiB (1%)
Language : Greek
Default : No
Forced : No

Text #17
ID : 19
Format : PGS
Muxing mode : zlib
Codec ID : S_HDMV/PGS
Duration : 2 h 15 min
Bit rate : 25.4 kb/s
Count of elements : 3120
Stream size : 24.6 MiB (1%)
Language : Italian
Default : No
Forced : No

Text #18
ID : 20
Format : PGS
Muxing mode : zlib
Codec ID : S_HDMV/PGS
Duration : 2 h 9 min
Bit rate : 17.3 kb/s
Count of elements : 2405
Stream size : 15.9 MiB (1%)
Language : Japanese
Default : No
Forced : No

Text #19
ID : 21
Format : PGS
Muxing mode : zlib
Codec ID : S_HDMV/PGS
Duration : 2 h 15 min
Bit rate : 14.7 kb/s
Count of elements : 3024
Stream size : 14.2 MiB (1%)
Language : Korean
Default : No
Forced : No

Text #20
ID : 22
Format : PGS
Muxing mode : zlib
Codec ID : S_HDMV/PGS
Duration : 2 h 9 min
Bit rate : 25.0 kb/s
Count of elements : 3128
Stream size : 23.1 MiB (1%)
Language : Lithuanian
Default : No
Forced : No

Text #21
ID : 23
Format : PGS
Muxing mode : zlib
Codec ID : S_HDMV/PGS
Duration : 2 h 15 min
Bit rate : 18.6 kb/s
Count of elements : 2906
Stream size : 17.9 MiB (1%)
Language : Norwegian
Default : No
Forced : No

Text #22
ID : 24
Format : PGS
Muxing mode : zlib
Codec ID : S_HDMV/PGS
Duration : 2 h 15 min
Bit rate : 21.6 kb/s
Count of elements : 2950
Stream size : 20.9 MiB (1%)
Language : Polish
Default : No
Forced : No

Text #23
ID : 25
Format : PGS
Muxing mode : zlib
Codec ID : S_HDMV/PGS
Duration : 2 h 9 min
Bit rate : 23.7 kb/s
Count of elements : 3094
Stream size : 21.9 MiB (1%)
Language : Portuguese
Default : No
Forced : No

Text #24
ID : 26
Format : PGS
Muxing mode : zlib
Codec ID : S_HDMV/PGS
Duration : 2 h 9 min
Bit rate : 23.8 kb/s
Count of elements : 2924
Stream size : 22.0 MiB (1%)
Language : Portuguese
Default : No
Forced : No

Text #25
ID : 27
Format : PGS
Muxing mode : zlib
Codec ID : S_HDMV/PGS
Duration : 2 h 15 min
Bit rate : 24.2 kb/s
Count of elements : 3100
Stream size : 23.4 MiB (1%)
Language : Romanian
Default : No
Forced : No

Text #26
ID : 28
Format : PGS
Muxing mode : zlib
Codec ID : S_HDMV/PGS
Duration : 2 h 9 min
Bit rate : 23.9 kb/s
Count of elements : 3048
Stream size : 22.1 MiB (1%)
Language : Russian
Default : No
Forced : No

Text #27
ID : 29
Format : PGS
Muxing mode : zlib
Codec ID : S_HDMV/PGS
Duration : 2 h 15 min
Bit rate : 21.4 kb/s
Count of elements : 2838
Stream size : 20.7 MiB (1%)
Language : Spanish
Default : No
Forced : No

Text #28
ID : 30
Format : PGS
Muxing mode : zlib
Codec ID : S_HDMV/PGS
Duration : 2 h 15 min
Bit rate : 22.4 kb/s
Count of elements : 3014
Stream size : 21.6 MiB (1%)
Language : Spanish
Default : No
Forced : No

Text #29
ID : 31
Format : PGS
Muxing mode : zlib
Codec ID : S_HDMV/PGS
Duration : 2 h 15 min
Bit rate : 17.8 kb/s
Count of elements : 2680
Stream size : 17.2 MiB (1%)
Language : Swedish
Default : No
Forced : No

Text #30
ID : 32
Format : PGS
Muxing mode : zlib
Codec ID : S_HDMV/PGS
Duration : 2 h 15 min
Bit rate : 21.4 kb/s
Count of elements : 3104
Stream size : 20.7 MiB (1%)
Language : Thai
Default : No
Forced : No

Text #31
ID : 33
Format : PGS
Muxing mode : zlib
Codec ID : S_HDMV/PGS
Duration : 2 h 9 min
Bit rate : 26.6 kb/s
Count of elements : 3084
Stream size : 24.6 MiB (1%)
Language : Turkish
Default : No
Forced : No

[collapse]
Download Link(s)

Download

Direct download files get automatically deleted after a month or so. Posted on : 11/24/2021

[collapse]
Magnet Link

Magnet

The.Amazing.Spider-Man.2012.1080p.BluRay.x264.TrueHD.7.1.Atmos-SWTYBLZ-14.31 GB

[collapse]

You may also like...

error: nah :p~