The Amazing Spider-Man 2 (2014)

PG-13 | 2h 22min | Action, Adventure, Fantasy | 2 May 2014 (USA)

When New York is put under siege by Oscorp, it is up to Spider-Man to save the city he swore to protect as well as his loved ones.

Watch trailer

Media information

General
Format : Matroska
Format version : Version 4
File size : 2.38 GiB
Duration : 2 h 21 min
Overall bit rate : 2 402 kb/s
Movie name : The.Amazing.Spider-Man.2.2014.1080p.10bit.BluRay.8CH.x265.HEVC

Video
ID : 1
Format : HEVC
Format/Info : High Efficiency Video Coding
Format profile : Main [email protected]@Main
Codec ID : V_MPEGH/ISO/HEVC
Duration : 2 h 21 min
Bit rate : 1 914 kb/s
Width : 1 920 pixels
Height : 800 pixels
Display aspect ratio : 2.40:1
Frame rate mode : Variable
Frame rate : 23.976 FPS
Color space : YUV
Chroma subsampling : 4:2:0 (Type 0)
Bit depth : 10 bits
Bits/(Pixel*Frame) : 0.052
Stream size : 1.89 GiB (80%)
Default : Yes
Forced : No
Color range : Limited

Audio
ID : 2
Format : AAC LC
Codec ID : A_AAC-2
Duration : 2 h 21 min
Bit rate : 384 kb/s
Channel(s) : 8 channels
Channel layout : C L R Ls Rs Lw Rw LFE
Sampling rate : 48.0 kHz
Frame rate : 46.875 FPS (1024 SPF)
Compression mode : Lossy
Stream size : 390 MiB (16%)
Language : English
Default : Yes
Forced : No

Text #1
ID : 3
Format : UTF-8
Codec ID : S_TEXT/UTF8
Codec ID/Info : UTF-8 Plain Text
Duration : 2 h 10 min
Bit rate : 55 b/s
Count of elements : 1687
Stream size : 53.0 KiB (0%)
Language : English
Default : No
Forced : No

Text #2
ID : 4
Format : UTF-8
Codec ID : S_TEXT/UTF8
Codec ID/Info : UTF-8 Plain Text
Duration : 2 h 19 min
Bit rate : 61 b/s
Count of elements : 2143
Stream size : 63.3 KiB (0%)
Title : SDH
Language : English
Default : Yes
Forced : No

Text #3
ID : 5
Format : PGS
Muxing mode : zlib
Codec ID : S_HDMV/PGS
Duration : 2 h 19 min
Bit rate : 25.7 kb/s
Count of elements : 4287
Stream size : 25.7 MiB (2%)
Language : English
Default : No
Forced : No

Text #4
ID : 6
Format : PGS
Muxing mode : zlib
Codec ID : S_HDMV/PGS
Duration : 2 h 10 min
Bit rate : 32.1 kb/s
Count of elements : 3375
Stream size : 29.9 MiB (2%)
Language : English
Default : No
Forced : No

Text #5
ID : 7
Format : PGS
Muxing mode : zlib
Codec ID : S_HDMV/PGS
Duration : 2 h 20 min
Bit rate : 27.0 kb/s
Count of elements : 3416
Stream size : 27.1 MiB (2%)
Language : Spanish
Default : No
Forced : No

Text #6
ID : 8
Format : PGS
Muxing mode : zlib
Codec ID : S_HDMV/PGS
Duration : 2 h 20 min
Bit rate : 24.5 kb/s
Count of elements : 3135
Stream size : 24.7 MiB (2%)
Language : French
Default : No
Forced : No

Text #7
ID : 9
Format : PGS
Muxing mode : zlib
Codec ID : S_HDMV/PGS
Duration : 2 h 20 min
Bit rate : 65.3 kb/s
Count of elements : 5582
Stream size : 65.7 MiB (4%)
Language : English
Default : No
Forced : No

Text #8
ID : 10
Format : PGS
Muxing mode : zlib
Codec ID : S_HDMV/PGS
Duration : 2 h 20 min
Bit rate : 56.2 kb/s
Count of elements : 5606
Stream size : 56.5 MiB (4%)
Language : Spanish
Default : No
Forced : No

[collapse]
Download Link(s)

Download

Direct download files get automatically deleted after a month or so. Posted on : 11/25/2021

[collapse]
Magnet Link

Magnet

The.Amazing.Spider-Man.2.2014.1080p.BluRay.x264.TrueHD.7.1.Atmos-SWTYBLZ-14.58 GB

[collapse]

Media information

General
Format : Matroska
Format version : Version 4
File size : 1.56 GiB
Duration : 2 h 21 min
Overall bit rate : 1 575 kb/s
Movie name : The.Amazing.Spider-Man.2.2014.720p.10bit.BluRay.8CH.x265.HEVC

Video
ID : 1
Format : HEVC
Format/Info : High Efficiency Video Coding
Format profile : Main [email protected]@Main
Codec ID : V_MPEGH/ISO/HEVC
Duration : 2 h 21 min
Bit rate : 1 216 kb/s
Width : 1 280 pixels
Height : 536 pixels
Display aspect ratio : 2.40:1
Frame rate mode : Variable
Frame rate : 23.976 FPS
Color space : YUV
Chroma subsampling : 4:2:0 (Type 0)
Bit depth : 10 bits
Bits/(Pixel*Frame) : 0.074
Stream size : 1.20 GiB (77%)
Default : Yes
Forced : No
Color range : Limited

Audio
ID : 2
Format : AAC LC
Codec ID : A_AAC-2
Duration : 2 h 21 min
Bit rate : 257 kb/s
Channel(s) : 8 channels
Channel layout : C L R Ls Rs Lw Rw LFE
Sampling rate : 48.0 kHz
Frame rate : 46.875 FPS (1024 SPF)
Compression mode : Lossy
Stream size : 260 MiB (16%)
Language : English
Default : Yes
Forced : No

Text #1
ID : 3
Format : UTF-8
Codec ID : S_TEXT/UTF8
Codec ID/Info : UTF-8 Plain Text
Duration : 2 h 10 min
Bit rate : 55 b/s
Count of elements : 1687
Stream size : 53.0 KiB (0%)
Language : English
Default : No
Forced : No

Text #2
ID : 4
Format : UTF-8
Codec ID : S_TEXT/UTF8
Codec ID/Info : UTF-8 Plain Text
Duration : 2 h 19 min
Bit rate : 61 b/s
Count of elements : 2143
Stream size : 63.3 KiB (0%)
Title : SDH
Language : English
Default : Yes
Forced : No

Text #3
ID : 5
Format : PGS
Muxing mode : zlib
Codec ID : S_HDMV/PGS
Duration : 2 h 19 min
Bit rate : 25.7 kb/s
Count of elements : 4287
Stream size : 25.7 MiB (2%)
Language : English
Default : No
Forced : No

Text #4
ID : 6
Format : PGS
Muxing mode : zlib
Codec ID : S_HDMV/PGS
Duration : 2 h 10 min
Bit rate : 32.1 kb/s
Count of elements : 3375
Stream size : 29.9 MiB (2%)
Language : English
Default : No
Forced : No

Text #5
ID : 7
Format : PGS
Muxing mode : zlib
Codec ID : S_HDMV/PGS
Duration : 2 h 20 min
Bit rate : 27.0 kb/s
Count of elements : 3416
Stream size : 27.1 MiB (2%)
Language : Spanish
Default : No
Forced : No

Text #6
ID : 8
Format : PGS
Muxing mode : zlib
Codec ID : S_HDMV/PGS
Duration : 2 h 20 min
Bit rate : 24.5 kb/s
Count of elements : 3135
Stream size : 24.7 MiB (2%)
Language : French
Default : No
Forced : No

Text #7
ID : 9
Format : PGS
Muxing mode : zlib
Codec ID : S_HDMV/PGS
Duration : 2 h 20 min
Bit rate : 65.3 kb/s
Count of elements : 5582
Stream size : 65.7 MiB (4%)
Language : English
Default : No
Forced : No

Text #8
ID : 10
Format : PGS
Muxing mode : zlib
Codec ID : S_HDMV/PGS
Duration : 2 h 20 min
Bit rate : 56.2 kb/s
Count of elements : 5606
Stream size : 56.5 MiB (4%)
Language : Spanish
Default : No
Forced : No

[collapse]
Download Link(s)

Download

Direct download files get automatically deleted after a month or so. Posted on : 11/25/2021

[collapse]
Magnet Link

Magnet

The.Amazing.Spider-Man.2.2014.1080p.BluRay.x264.TrueHD.7.1.Atmos-SWTYBLZ-14.58 GB

[collapse]

You may also like...

error: nah :p~