The 93rd Oscars (2021)

The Oscars (original title)|2h 30min | TV Special 25 April 2021

The top movies of the past year are honored at the 93rd annual Academy Awards, “Mank (2020)”, which leads the with 10 nominations, as well as “The Father (2020)”, “Judas and the Black Messiah (2021)”, “Nomadland (2020)”, and “Sound of Metal (2019)”.

Watch trailer

Media information

General
Format : Matroska
Format version : Version 4
File size : 906 MiB
Duration : 2 h 33 min
Overall bit rate : 825 kb/s
Movie name : The.93rd.Annual.Academy.Awards.2021.720p.HDTV.2CH.x265.HEVC

Video
ID : 1
Format : HEVC
Format/Info : High Efficiency Video Coding
Format profile : [email protected]@Main
Codec ID : V_MPEGH/ISO/HEVC
Duration : 2 h 33 min
Bit rate : 756 kb/s
Width : 1 280 pixels
Height : 720 pixels
Display aspect ratio : 16:9
Frame rate mode : Constant
Frame rate : 29.970 (30000/1001) FPS
Color space : YUV
Chroma subsampling : 4:2:0
Bit depth : 8 bits
Bits/(Pixel*Frame) : 0.027
Stream size : 830 MiB (92%)
Default : Yes
Forced : No

Audio
ID : 2
Format : AAC LC SBR
Commercial name : HE-AAC
Format settings : Explicit
Codec ID : A_AAC-2
Duration : 2 h 33 min
Bit rate : 66.2 kb/s
Channel(s) : 2 channels
Channel layout : L R
Sampling rate : 48.0 kHz
Frame rate : 23.438 FPS (2048 SPF)
Compression mode : Lossy
Delay relative to video : 23 ms
Stream size : 72.7 MiB (8%)
Language : English
Default : Yes
Forced : No

Text
ID : 3
Format : UTF-8
Codec ID : S_TEXT/UTF8
Codec ID/Info : UTF-8 Plain Text
Duration : 2 h 29 min
Bit rate : 69 b/s
Count of elements : 2492
Stream size : 76.5 KiB (0%)
Language : English
Default : Yes
Forced : No

[collapse]
Download Link(s)

Download

Direct download files get automatically deleted after a month or so. Posted on : 04/27/2021

[collapse]
Magnet Link

Magnet

The.93rd.Annual.Academy.Awards.2021.720p.WEB.h264.BAE.TGx-3.6 GB

[collapse]

You may also like...

error: nah :p~