The 66th Annual Grammy Awards (2024)

TV Special | 2 h 35 min | Music

The 66th Annual Grammy Awards honors the best recordings, compositions, and artists, as chosen by The Recording Academy on February 4, 2024, and held at the Crypto.com Arena in Los Angeles. Hosted by Trevor Noah.

Watch trailer

Media information

General
Format : Matroska
Format version : Version 4
File size : 1.32 GiB
Duration : 2 h 35 min
Overall bit rate : 1 212 kb/s
Frame rate : 29.970 FPS
Movie name : The.66th.Annual.Grammy.Awards.2024.720p.WEBRip.DDP5.1.x265.HEVC

Video
ID : 1
Format : HEVC
Format/Info : High Efficiency Video Coding
Format profile : [email protected]@Main
Codec ID : V_MPEGH/ISO/HEVC
Duration : 2 h 35 min
Bit rate : 1 018 kb/s
Width : 1 280 pixels
Height : 720 pixels
Display aspect ratio : 16:9
Frame rate mode : Constant
Frame rate : 29.970 (30000/1001) FPS
Color space : YUV
Chroma subsampling : 4:2:0
Bit depth : 8 bits
Bits/(Pixel*Frame) : 0.037
Stream size : 1.11 GiB (84%)
Default : Yes
Forced : No
Color range : Limited
Color primaries : BT.709
Transfer characteristics : BT.709
Matrix coefficients : BT.709

Audio
ID : 2
Format : E-AC-3
Format/Info : Enhanced AC-3
Commercial name : Dolby Digital Plus
Codec ID : A_EAC3
Duration : 2 h 35 min
Bit rate mode : Constant
Bit rate : 192 kb/s
Channel(s) : 6 channels
Channel layout : L R C LFE Ls Rs
Sampling rate : 48.0 kHz
Frame rate : 31.250 FPS (1536 SPF)
Compression mode : Lossy
Stream size : 214 MiB (16%)
Language : English
Service kind : Complete Main
Default : Yes
Forced : No

Text
ID : 3
Format : UTF-8
Codec ID : S_TEXT/UTF8
Codec ID/Info : UTF-8 Plain Text
Duration : 2 h 35 min
Bit rate : 81 b/s
Frame rate : 0.321 FPS
Count of elements : 2988
Stream size : 92.6 KiB (0%)
Language : English
Default : Yes
Forced : No

[collapse]
Download Link(s)

Download

Direct download files get automatically deleted after a month or so. Posted on : 02/09/2024

[collapse]
Magnet Link

Magnet

The.66th.Annual.Grammy.Awards.2024.REPACK.1080p.WEB.h264-BAE.TGx-5.1 GB

[collapse]

You may also like...

error: nah :p~