Teri Baaton Mein Aisa Uljha Jiya (2024)

2h 21min | Comedy, Drama, Romance

Aryan is not able to find a perfect life partner. He meets a perfect girl, Sifra, during an official assignment in the US and falls in love with her only to discover later that it’s an impossible love story.

Watch trailer

Media information

General
Format : Matroska
Format version : Version 4
File size : 1.92 GiB
Duration : 2 h 20 min
Overall bit rate : 1 947 kb/s
Frame rate : 24.000 FPS
Movie name : Teri.Baaton.Mein.Aisa.Uljha.Jiya.2024.HINDI.1080p.10bit.WEBRip.6CH.x265.HEVC

Video
ID : 1
Format : HEVC
Format/Info : High Efficiency Video Coding
Format profile : Main 10@L4@Main
Codec ID : V_MPEGH/ISO/HEVC
Duration : 2 h 20 min
Bit rate : 1 733 kb/s
Width : 1 920 pixels
Height : 800 pixels
Display aspect ratio : 2.40:1
Frame rate mode : Constant
Frame rate : 24.000 FPS
Color space : YUV
Chroma subsampling : 4:2:0
Bit depth : 10 bits
Bits/(Pixel*Frame) : 0.047
Stream size : 1.71 GiB (89%)
Default : Yes
Forced : No
Color range : Limited
Color primaries : BT.709
Transfer characteristics : BT.709
Matrix coefficients : BT.709

Audio
ID : 2
Format : AAC LC SBR
Commercial name : HE-AAC
Format settings : Explicit
Codec ID : A_AAC-2
Duration : 2 h 20 min
Bit rate : 210 kb/s
Channel(s) : 6 channels
Channel layout : C L R Ls Rs LFE
Sampling rate : 48.0 kHz
Frame rate : 23.438 FPS (2048 SPF)
Compression mode : Lossy
Delay relative to video : 23 ms
Stream size : 211 MiB (11%)
Language : Hindi
Default : Yes
Forced : No

Text #1
ID : 3
Format : UTF-8
Codec ID : S_TEXT/UTF8
Codec ID/Info : UTF-8 Plain Text
Duration : 2 h 14 min
Bit rate : 79 b/s
Frame rate : 0.331 FPS
Count of elements : 2672
Stream size : 78.6 KiB (0%)
Title : English (United States) [CC]
Language : English
Default : Yes
Forced : No

Text #2
ID : 4
Format : UTF-8
Codec ID : S_TEXT/UTF8
Codec ID/Info : UTF-8 Plain Text
Duration : 2 h 14 min
Bit rate : 126 b/s
Frame rate : 0.331 FPS
Count of elements : 2672
Stream size : 125 KiB (0%)
Title : العربية (المملكة العربية السعودية) [CC]
Language : Arabic
Default : No
Forced : No

Text #3
ID : 5
Format : UTF-8
Codec ID : S_TEXT/UTF8
Codec ID/Info : UTF-8 Plain Text
Duration : 2 h 14 min
Bit rate : 90 b/s
Frame rate : 0.330 FPS
Count of elements : 2664
Stream size : 89.1 KiB (0%)
Title : Français (France) [CC]
Language : French
Default : No
Forced : No

Text #4
ID : 6
Format : UTF-8
Codec ID : S_TEXT/UTF8
Codec ID/Info : UTF-8 Plain Text
Duration : 2 h 14 min
Bit rate : 83 b/s
Frame rate : 0.330 FPS
Count of elements : 2666
Stream size : 82.3 KiB (0%)
Title : Italiano (Italia) [CC]
Language : Italian
Default : No
Forced : No

Text #5
ID : 7
Format : UTF-8
Codec ID : S_TEXT/UTF8
Codec ID/Info : UTF-8 Plain Text
Duration : 2 h 14 min
Bit rate : 80 b/s
Frame rate : 0.330 FPS
Count of elements : 2666
Stream size : 79.1 KiB (0%)
Title : Bahasa Malaysia (Brunei) [SDH]
Language : Malay
Default : No
Forced : No

Text #6
ID : 8
Format : UTF-8
Codec ID : S_TEXT/UTF8
Codec ID/Info : UTF-8 Plain Text
Duration : 2 h 14 min
Bit rate : 89 b/s
Frame rate : 0.330 FPS
Count of elements : 2666
Stream size : 87.8 KiB (0%)
Title : Bahasa Malaysia (Malaysia) [SDH]
Language : Malay
Default : No
Forced : No

Text #7
ID : 9
Format : UTF-8
Codec ID : S_TEXT/UTF8
Codec ID/Info : UTF-8 Plain Text
Duration : 2 h 14 min
Bit rate : 203 b/s
Frame rate : 0.330 FPS
Count of elements : 2664
Stream size : 200 KiB (0%)
Title : မြန်မာ (မြန်မာ) [CC]
Language : Burmese
Default : No
Forced : No

Text #8
ID : 10
Format : UTF-8
Codec ID : S_TEXT/UTF8
Codec ID/Info : UTF-8 Plain Text
Duration : 2 h 14 min
Bit rate : 85 b/s
Frame rate : 0.330 FPS
Count of elements : 2666
Stream size : 84.4 KiB (0%)
Title : Polski (Polska) [CC]
Language : Polish
Default : No
Forced : No

Text #9
ID : 11
Format : UTF-8
Codec ID : S_TEXT/UTF8
Codec ID/Info : UTF-8 Plain Text
Duration : 2 h 14 min
Bit rate : 140 b/s
Frame rate : 0.330 FPS
Count of elements : 2666
Stream size : 139 KiB (0%)
Title : Русский (Россия) [CC]
Language : Russian
Default : No
Forced : No

Text #10
ID : 12
Format : UTF-8
Codec ID : S_TEXT/UTF8
Codec ID/Info : UTF-8 Plain Text
Duration : 2 h 14 min
Bit rate : 198 b/s
Frame rate : 0.330 FPS
Count of elements : 2664
Stream size : 195 KiB (0%)
Title : ไทย (ไทย) [CC]
Language : Thai
Default : No
Forced : No

[collapse]
Download Link(s)

Download

Direct download files get automatically deleted after a month or so. Posted on : 03/24/2024

[collapse]
Magnet Link

Magnet

Teri.Baaton.Mein.Aisa.Uljha.Jiya.2024.Hindi.1080p.AMZN.WEB-DL.DD+5.1.H.264-TheBiscuitMan-8.04 GB

[collapse]

Media information

General
Format : Matroska
Format version : Version 4
File size : 1.03 GiB
Duration : 2 h 20 min
Overall bit rate : 1 044 kb/s
Frame rate : 24.000 FPS
Movie name : Teri.Baaton.Mein.Aisa.Uljha.Jiya.2024.HINDI.720p.10bit.WEBRip.6CH.x265.HEVC

Video
ID : 1
Format : HEVC
Format/Info : High Efficiency Video Coding
Format profile : Main [email protected]@Main
Codec ID : V_MPEGH/ISO/HEVC
Duration : 2 h 20 min
Bit rate : 831 kb/s
Width : 1 280 pixels
Height : 536 pixels
Display aspect ratio : 2.39:1
Frame rate mode : Constant
Frame rate : 24.000 FPS
Color space : YUV
Chroma subsampling : 4:2:0
Bit depth : 10 bits
Bits/(Pixel*Frame) : 0.050
Stream size : 837 MiB (80%)
Default : Yes
Forced : No
Color range : Limited
Color primaries : BT.709
Transfer characteristics : BT.709
Matrix coefficients : BT.709

Audio
ID : 2
Format : AAC LC SBR
Commercial name : HE-AAC
Format settings : Explicit
Codec ID : A_AAC-2
Duration : 2 h 20 min
Bit rate : 210 kb/s
Channel(s) : 6 channels
Channel layout : C L R Ls Rs LFE
Sampling rate : 48.0 kHz
Frame rate : 23.438 FPS (2048 SPF)
Compression mode : Lossy
Delay relative to video : 23 ms
Stream size : 211 MiB (20%)
Language : Hindi
Default : Yes
Forced : No

Text #1
ID : 3
Format : UTF-8
Codec ID : S_TEXT/UTF8
Codec ID/Info : UTF-8 Plain Text
Duration : 2 h 14 min
Bit rate : 79 b/s
Frame rate : 0.331 FPS
Count of elements : 2672
Stream size : 78.6 KiB (0%)
Title : English (United States) [CC]
Language : English
Default : Yes
Forced : No

Text #2
ID : 4
Format : UTF-8
Codec ID : S_TEXT/UTF8
Codec ID/Info : UTF-8 Plain Text
Duration : 2 h 14 min
Bit rate : 126 b/s
Frame rate : 0.331 FPS
Count of elements : 2672
Stream size : 125 KiB (0%)
Title : العربية (المملكة العربية السعودية) [CC]
Language : Arabic
Default : No
Forced : No

Text #3
ID : 5
Format : UTF-8
Codec ID : S_TEXT/UTF8
Codec ID/Info : UTF-8 Plain Text
Duration : 2 h 14 min
Bit rate : 90 b/s
Frame rate : 0.330 FPS
Count of elements : 2664
Stream size : 89.1 KiB (0%)
Title : Français (France) [CC]
Language : French
Default : No
Forced : No

Text #4
ID : 6
Format : UTF-8
Codec ID : S_TEXT/UTF8
Codec ID/Info : UTF-8 Plain Text
Duration : 2 h 14 min
Bit rate : 83 b/s
Frame rate : 0.330 FPS
Count of elements : 2666
Stream size : 82.3 KiB (0%)
Title : Italiano (Italia) [CC]
Language : Italian
Default : No
Forced : No

Text #5
ID : 7
Format : UTF-8
Codec ID : S_TEXT/UTF8
Codec ID/Info : UTF-8 Plain Text
Duration : 2 h 14 min
Bit rate : 80 b/s
Frame rate : 0.330 FPS
Count of elements : 2666
Stream size : 79.1 KiB (0%)
Title : Bahasa Malaysia (Brunei) [SDH]
Language : Malay
Default : No
Forced : No

Text #6
ID : 8
Format : UTF-8
Codec ID : S_TEXT/UTF8
Codec ID/Info : UTF-8 Plain Text
Duration : 2 h 14 min
Bit rate : 89 b/s
Frame rate : 0.330 FPS
Count of elements : 2666
Stream size : 87.8 KiB (0%)
Title : Bahasa Malaysia (Malaysia) [SDH]
Language : Malay
Default : No
Forced : No

Text #7
ID : 9
Format : UTF-8
Codec ID : S_TEXT/UTF8
Codec ID/Info : UTF-8 Plain Text
Duration : 2 h 14 min
Bit rate : 203 b/s
Frame rate : 0.330 FPS
Count of elements : 2664
Stream size : 200 KiB (0%)
Title : မြန်မာ (မြန်မာ) [CC]
Language : Burmese
Default : No
Forced : No

Text #8
ID : 10
Format : UTF-8
Codec ID : S_TEXT/UTF8
Codec ID/Info : UTF-8 Plain Text
Duration : 2 h 14 min
Bit rate : 85 b/s
Frame rate : 0.330 FPS
Count of elements : 2666
Stream size : 84.4 KiB (0%)
Title : Polski (Polska) [CC]
Language : Polish
Default : No
Forced : No

Text #9
ID : 11
Format : UTF-8
Codec ID : S_TEXT/UTF8
Codec ID/Info : UTF-8 Plain Text
Duration : 2 h 14 min
Bit rate : 140 b/s
Frame rate : 0.330 FPS
Count of elements : 2666
Stream size : 139 KiB (0%)
Title : Русский (Россия) [CC]
Language : Russian
Default : No
Forced : No

Text #10
ID : 12
Format : UTF-8
Codec ID : S_TEXT/UTF8
Codec ID/Info : UTF-8 Plain Text
Duration : 2 h 14 min
Bit rate : 198 b/s
Frame rate : 0.330 FPS
Count of elements : 2664
Stream size : 195 KiB (0%)
Title : ไทย (ไทย) [CC]
Language : Thai
Default : No
Forced : No

[collapse]
Download Link(s)

Download

Direct download files get automatically deleted after a month or so. Posted on : 03/24/2024

[collapse]
Magnet Link

Magnet

Teri.Baaton.Mein.Aisa.Uljha.Jiya.2024.Hindi.1080p.AMZN.WEB-DL.DD+5.1.H.264-TheBiscuitMan-8.04 GB

[collapse]

You may also like...

error: nah :p~