Taxi 4 (2007)

Not Rated | 1h 31min | Action, Comedy, Crime | 14 February 2007 (France)

Daniel, the driver of a very special taxi in Marseille, gets a famous soccer player to the stadium in time and later helps his clumsy police friend Émilien catch the dangerous Belgian after he escaped on Émilien’s guard.

Watch trailer

Media information

General
Format : Matroska
Format version : Version 4
File size : 1.00 GiB
Duration : 1 h 30 min
Overall bit rate : 1 584 kb/s
Movie name : Taxi.4.2007.FRENCH.1080p.BluRay.2CH.x265.HEVC

Video
ID : 1
Format : HEVC
Format/Info : High Efficiency Video Coding
Format profile : [email protected]@Main
Codec ID : V_MPEGH/ISO/HEVC
Duration : 1 h 30 min
Bit rate : 1 500 kb/s
Width : 1 920 pixels
Height : 816 pixels
Display aspect ratio : 2.35:1
Frame rate mode : Constant
Frame rate : 24.000 FPS
Color space : YUV
Chroma subsampling : 4:2:0
Bit depth : 8 bits
Bits/(Pixel*Frame) : 0.040
Stream size : 974 MiB (95%)
Default : Yes
Forced : No
Color range : Limited
Color primaries : BT.709
Transfer characteristics : BT.709
Matrix coefficients : BT.709

Audio
ID : 2
Format : AAC LC
Codec ID : A_AAC-2
Duration : 1 h 30 min
Bit rate : 80.4 kb/s
Channel(s) : 2 channels
Channel layout : L R
Sampling rate : 48.0 kHz
Frame rate : 46.875 FPS (1024 SPF)
Compression mode : Lossy
Delay relative to video : -21 ms
Stream size : 52.2 MiB (5%)
Title : Stereo
Language : French
Default : Yes
Forced : No

Text #1
ID : 3
Format : UTF-8
Codec ID : S_TEXT/UTF8
Codec ID/Info : UTF-8 Plain Text
Duration : 1 h 24 min
Bit rate : 85 b/s
Count of elements : 1751
Stream size : 52.8 KiB (0%)
Language : English
Default : Yes
Forced : No

Text #2
ID : 4
Format : ASS
Codec ID : S_TEXT/ASS
Duration : 1 h 24 min
Bit rate : 144 b/s
Count of elements : 1751
Compression mode : Lossless
Stream size : 89.3 KiB (0%)
Language : English
Default : No
Forced : Yes

Text #3
ID : 5
Format : ASS
Codec ID : S_TEXT/ASS
Duration : 1 h 24 min
Bit rate : 95 b/s
Count of elements : 913
Compression mode : Lossless
Stream size : 59.4 KiB (0%)
Language : Danish
Default : No
Forced : No

Text #4
ID : 6
Format : ASS
Codec ID : S_TEXT/ASS
Duration : 1 h 24 min
Bit rate : 92 b/s
Count of elements : 913
Compression mode : Lossless
Stream size : 57.6 KiB (0%)
Language : Swedish
Default : No
Forced : No

Text #5
ID : 7
Format : ASS
Codec ID : S_TEXT/ASS
Duration : 1 h 24 min
Bit rate : 93 b/s
Count of elements : 913
Compression mode : Lossless
Stream size : 57.8 KiB (0%)
Language : Norwegian
Default : No
Forced : No

Text #6
ID : 8
Format : ASS
Codec ID : S_TEXT/ASS
Duration : 1 h 24 min
Bit rate : 84 b/s
Count of elements : 913
Compression mode : Lossless
Stream size : 52.7 KiB (0%)
Language : Finnish
Default : No
Forced : No

[collapse]
Download Link(s)

Download

Direct download files get automatically deleted after a month or so. Posted on : 04/06/2020

[collapse]
Magnet Link

Magnet

Taxi.4.2007.FRENCH.1080p.Bluray.x264-DEFiNiTE-6.56 GB

[collapse]

Media information

General
Format : Matroska
Format version : Version 4
File size : 639 MiB
Duration : 1 h 30 min
Overall bit rate : 984 kb/s
Movie name : Taxi.4.2007.FRENCH.720p.BluRay.2CH.x265.HEVC

Video
ID : 1
Format : HEVC
Format/Info : High Efficiency Video Coding
Format profile : [email protected]@Main
Codec ID : V_MPEGH/ISO/HEVC
Duration : 1 h 30 min
Bit rate : 901 kb/s
Width : 1 280 pixels
Height : 544 pixels
Display aspect ratio : 2.35:1
Frame rate mode : Constant
Frame rate : 24.000 FPS
Color space : YUV
Chroma subsampling : 4:2:0
Bit depth : 8 bits
Bits/(Pixel*Frame) : 0.054
Stream size : 585 MiB (92%)
Default : Yes
Forced : No
Color range : Limited
Color primaries : BT.709
Transfer characteristics : BT.709
Matrix coefficients : BT.709

Audio
ID : 2
Format : AAC LC
Codec ID : A_AAC-2
Duration : 1 h 30 min
Bit rate : 80.4 kb/s
Channel(s) : 2 channels
Channel layout : L R
Sampling rate : 48.0 kHz
Frame rate : 46.875 FPS (1024 SPF)
Compression mode : Lossy
Delay relative to video : -21 ms
Stream size : 52.2 MiB (8%)
Title : Stereo
Language : French
Default : Yes
Forced : No

Text #1
ID : 3
Format : UTF-8
Codec ID : S_TEXT/UTF8
Codec ID/Info : UTF-8 Plain Text
Duration : 1 h 24 min
Bit rate : 85 b/s
Count of elements : 1751
Stream size : 52.8 KiB (0%)
Language : English
Default : Yes
Forced : No

Text #2
ID : 4
Format : ASS
Codec ID : S_TEXT/ASS
Duration : 1 h 24 min
Bit rate : 144 b/s
Count of elements : 1751
Compression mode : Lossless
Stream size : 89.3 KiB (0%)
Language : English
Default : No
Forced : Yes

Text #3
ID : 5
Format : ASS
Codec ID : S_TEXT/ASS
Duration : 1 h 24 min
Bit rate : 95 b/s
Count of elements : 913
Compression mode : Lossless
Stream size : 59.4 KiB (0%)
Language : Danish
Default : No
Forced : No

Text #4
ID : 6
Format : ASS
Codec ID : S_TEXT/ASS
Duration : 1 h 24 min
Bit rate : 92 b/s
Count of elements : 913
Compression mode : Lossless
Stream size : 57.6 KiB (0%)
Language : Swedish
Default : No
Forced : No

Text #5
ID : 7
Format : ASS
Codec ID : S_TEXT/ASS
Duration : 1 h 24 min
Bit rate : 93 b/s
Count of elements : 913
Compression mode : Lossless
Stream size : 57.8 KiB (0%)
Language : Norwegian
Default : No
Forced : No

Text #6
ID : 8
Format : ASS
Codec ID : S_TEXT/ASS
Duration : 1 h 24 min
Bit rate : 84 b/s
Count of elements : 913
Compression mode : Lossless
Stream size : 52.7 KiB (0%)
Language : Finnish
Default : No
Forced : No

[collapse]
Download Link(s)

Download

Direct download files get automatically deleted after a month or so. Posted on : 04/06/2020

[collapse]
Magnet Link

Magnet

Taxi.4.2007.FRENCH.1080p.Bluray.x264-DEFiNiTE-6.56 GB

[collapse]

You may also like...

error: nah :p~