Taxi (1998)

Not Rated | 1h 26min | Action, Comedy, Crime | 20 November 1998 (USA)

To work off his tarnished driving record, a hip taxi driver must chauffeur a loser police inspector on the trail of German bank robbers

Watch trailer

Media information

General
Format : Matroska
Format version : Version 4
File size : 825 MiB
Duration : 1 h 29 min
Overall bit rate : 1 283 kb/s
Movie name : Taxi.1998.FRENCH.1080p.BluRay.2CH.x265.HEVC

Video
ID : 1
Format : HEVC
Format/Info : High Efficiency Video Coding
Format profile : [email protected]@Main
Codec ID : V_MPEGH/ISO/HEVC
Duration : 1 h 29 min
Bit rate : 1 200 kb/s
Width : 1 920 pixels
Height : 816 pixels
Display aspect ratio : 2.35:1
Frame rate mode : Constant
Frame rate : 23.976 (24000/1001) FPS
Color space : YUV
Chroma subsampling : 4:2:0
Bit depth : 8 bits
Bits/(Pixel*Frame) : 0.032
Stream size : 771 MiB (94%)
Default : Yes
Forced : No
Color range : Limited
Color primaries : BT.709
Transfer characteristics : BT.709
Matrix coefficients : BT.709

Audio
ID : 2
Format : AAC LC
Codec ID : A_AAC-2
Duration : 1 h 29 min
Bit rate : 80.4 kb/s
Channel(s) : 2 channels
Channel layout : L R
Sampling rate : 48.0 kHz
Frame rate : 46.875 FPS (1024 SPF)
Compression mode : Lossy
Delay relative to video : -10 ms
Stream size : 51.6 MiB (6%)
Title : Stereo
Language : French
Default : Yes
Forced : No

Text #1
ID : 3
Format : ASS
Codec ID : S_TEXT/ASS
Duration : 1 h 23 min
Bit rate : 115 b/s
Count of elements : 1228
Compression mode : Lossless
Stream size : 70.3 KiB (0%)
Language : English
Default : Yes
Forced : Yes

Text #2
ID : 4
Format : ASS
Codec ID : S_TEXT/ASS
Duration : 1 h 25 min
Bit rate : 80 b/s
Count of elements : 733
Compression mode : Lossless
Stream size : 50.6 KiB (0%)
Language : Danish
Default : No
Forced : No

Text #3
ID : 5
Format : ASS
Codec ID : S_TEXT/ASS
Duration : 1 h 24 min
Bit rate : 83 b/s
Count of elements : 806
Compression mode : Lossless
Stream size : 52.0 KiB (0%)
Language : Swedish
Default : No
Forced : No

Text #4
ID : 6
Format : ASS
Codec ID : S_TEXT/ASS
Duration : 1 h 25 min
Bit rate : 79 b/s
Count of elements : 733
Compression mode : Lossless
Stream size : 49.6 KiB (0%)
Language : Norwegian
Default : No
Forced : No

Text #5
ID : 7
Format : ASS
Codec ID : S_TEXT/ASS
Duration : 1 h 25 min
Bit rate : 81 b/s
Count of elements : 881
Compression mode : Lossless
Stream size : 50.8 KiB (0%)
Language : Finnish
Default : No
Forced : No

[collapse]
Download Link(s)

Download

Direct download files get automatically deleted after a month or so. Posted on : 04/04/2020

[collapse]
Magnet Link

Magnet

Taxi.1998.FRENCH.1080p.BluRay.x264-CiNEFiLE- 6.56 GB

[collapse]

Media information

General
Format : Matroska
Format version : Version 4
File size : 632 MiB
Duration : 1 h 29 min
Overall bit rate : 984 kb/s
Movie name : Taxi.1998.FRENCH.720p.BluRay.2CH.x265.HEVC

Video
ID : 1
Format : HEVC
Format/Info : High Efficiency Video Coding
Format profile : [email protected]@Main
Codec ID : V_MPEGH/ISO/HEVC
Duration : 1 h 29 min
Bit rate : 900 kb/s
Width : 1 280 pixels
Height : 544 pixels
Display aspect ratio : 2.35:1
Frame rate mode : Constant
Frame rate : 23.976 (24000/1001) FPS
Color space : YUV
Chroma subsampling : 4:2:0
Bit depth : 8 bits
Bits/(Pixel*Frame) : 0.054
Stream size : 579 MiB (92%)
Default : Yes
Forced : No
Color range : Limited
Color primaries : BT.709
Transfer characteristics : BT.709
Matrix coefficients : BT.709

Audio
ID : 2
Format : AAC LC
Codec ID : A_AAC-2
Duration : 1 h 29 min
Bit rate : 80.4 kb/s
Channel(s) : 2 channels
Channel layout : L R
Sampling rate : 48.0 kHz
Frame rate : 46.875 FPS (1024 SPF)
Compression mode : Lossy
Delay relative to video : -10 ms
Stream size : 51.6 MiB (8%)
Title : Stereo
Language : French
Default : Yes
Forced : No

Text #1
ID : 3
Format : ASS
Codec ID : S_TEXT/ASS
Duration : 1 h 23 min
Bit rate : 115 b/s
Count of elements : 1228
Compression mode : Lossless
Stream size : 70.3 KiB (0%)
Language : English
Default : Yes
Forced : Yes

Text #2
ID : 4
Format : ASS
Codec ID : S_TEXT/ASS
Duration : 1 h 25 min
Bit rate : 80 b/s
Count of elements : 733
Compression mode : Lossless
Stream size : 50.6 KiB (0%)
Language : Danish
Default : No
Forced : No

Text #3
ID : 5
Format : ASS
Codec ID : S_TEXT/ASS
Duration : 1 h 24 min
Bit rate : 83 b/s
Count of elements : 806
Compression mode : Lossless
Stream size : 52.0 KiB (0%)
Language : Swedish
Default : No
Forced : No

Text #4
ID : 6
Format : ASS
Codec ID : S_TEXT/ASS
Duration : 1 h 25 min
Bit rate : 79 b/s
Count of elements : 733
Compression mode : Lossless
Stream size : 49.6 KiB (0%)
Language : Norwegian
Default : No
Forced : No

Text #5
ID : 7
Format : ASS
Codec ID : S_TEXT/ASS
Duration : 1 h 25 min
Bit rate : 81 b/s
Count of elements : 881
Compression mode : Lossless
Stream size : 50.8 KiB (0%)
Language : Finnish
Default : No
Forced : No

[collapse]
Download Link(s)

Download

Direct download files get automatically deleted after a month or so. Posted on : 04/04/2020

[collapse]
Magnet Link

Magnet

Taxi.1998.FRENCH.1080p.BluRay.x264-CiNEFiLE- 6.56 GB

[collapse]

You may also like...

error: nah :p~