Tarot (2024)

PG-13 | 1h 32min | Horror

When a group of friends recklessly violates the sacred rule of Tarot readings, they unknowingly unleash an unspeakable evil trapped within the cursed cards. One by one, they come face to face with fate and end up in a race against death.

Watch trailer

Media information

General
Format : Matroska
Format version : Version 4
File size : 1.64 GiB
Duration : 1 h 32 min
Overall bit rate : 2 542 kb/s
Frame rate : 23.976 FPS
Movie name : Tarot.2024.1080p.10bit.WEBRip.6CH.x265.HEVC

Video
ID : 1
Format : HEVC
Format/Info : High Efficiency Video Coding
Format profile : Main 10@L4@Main
Codec ID : V_MPEGH/ISO/HEVC
Duration : 1 h 32 min
Bit rate : 2 155 kb/s
Width : 1 920 pixels
Height : 800 pixels
Display aspect ratio : 2.40:1
Frame rate mode : Constant
Frame rate : 23.976 (24000/1001) FPS
Color space : YUV
Chroma subsampling : 4:2:0 (Type 0)
Bit depth : 10 bits
Bits/(Pixel*Frame) : 0.059
Stream size : 1.39 GiB (85%)
Default : Yes
Forced : No
Color range : Limited
Color primaries : BT.709
Transfer characteristics : BT.709
Matrix coefficients : BT.709

Audio
ID : 2
Format : E-AC-3
Format/Info : Enhanced AC-3
Commercial name : Dolby Digital Plus
Codec ID : A_EAC3
Duration : 1 h 32 min
Bit rate mode : Constant
Bit rate : 384 kb/s
Channel(s) : 6 channels
Channel layout : L R C LFE Ls Rs
Sampling rate : 48.0 kHz
Frame rate : 31.250 FPS (1536 SPF)
Bit depth : 32 bits
Compression mode : Lossy
Stream size : 253 MiB (15%)
Language : English
Service kind : Complete Main
Default : Yes
Forced : No
Dialog Normalization : -31 dB
dialnorm_Average : -31 dB
dialnorm_Minimum : -31 dB
dialnorm_Maximum : -31 dB

Text #1
ID : 3
Format : UTF-8
Codec ID : S_TEXT/UTF8
Codec ID/Info : UTF-8 Plain Text
Duration : 1 h 31 min
Bit rate : 57 b/s
Frame rate : 0.226 FPS
Count of elements : 1234
Stream size : 38.3 KiB (0%)
Language : English
Default : No
Forced : No

Text #2
ID : 4
Format : UTF-8
Codec ID : S_TEXT/UTF8
Codec ID/Info : UTF-8 Plain Text
Duration : 1 h 31 min
Bit rate : 64 b/s
Frame rate : 0.259 FPS
Count of elements : 1421
Stream size : 43.0 KiB (0%)
Title : SDH
Language : English
Default : Yes
Forced : No

Text #3
ID : 5
Format : UTF-8
Codec ID : S_TEXT/UTF8
Codec ID/Info : UTF-8 Plain Text
Duration : 1 h 31 min
Bit rate : 50 b/s
Frame rate : 0.214 FPS
Count of elements : 1170
Stream size : 33.6 KiB (0%)
Language : German
Default : No
Forced : No

Text #4
ID : 6
Format : UTF-8
Codec ID : S_TEXT/UTF8
Codec ID/Info : UTF-8 Plain Text
Duration : 1 h 31 min
Bit rate : 47 b/s
Frame rate : 0.199 FPS
Count of elements : 1091
Stream size : 31.7 KiB (0%)
Title : European
Language : Spanish
Default : No
Forced : No

Text #5
ID : 7
Format : UTF-8
Codec ID : S_TEXT/UTF8
Codec ID/Info : UTF-8 Plain Text
Duration : 1 h 31 min
Bit rate : 46 b/s
Frame rate : 0.231 FPS
Count of elements : 1266
Stream size : 31.2 KiB (0%)
Language : Finnish
Default : No
Forced : No

Text #6
ID : 8
Format : UTF-8
Codec ID : S_TEXT/UTF8
Codec ID/Info : UTF-8 Plain Text
Duration : 1 h 31 min
Bit rate : 42 b/s
Frame rate : 0.185 FPS
Count of elements : 1012
Stream size : 28.4 KiB (0%)
Title : European
Language : French
Default : No
Forced : No

Text #7
ID : 9
Format : UTF-8
Codec ID : S_TEXT/UTF8
Codec ID/Info : UTF-8 Plain Text
Duration : 1 h 31 min
Bit rate : 46 b/s
Frame rate : 0.187 FPS
Count of elements : 1022
Stream size : 31.4 KiB (0%)
Language : Italian
Default : No
Forced : No

Text #8
ID : 10
Format : UTF-8
Codec ID : S_TEXT/UTF8
Codec ID/Info : UTF-8 Plain Text
Duration : 1 h 31 min
Bit rate : 41 b/s
Frame rate : 0.139 FPS
Count of elements : 762
Stream size : 27.7 KiB (0%)
Language : Dutch
Default : No
Forced : No

Text #9
ID : 11
Format : UTF-8
Codec ID : S_TEXT/UTF8
Codec ID/Info : UTF-8 Plain Text
Duration : 1 h 31 min
Bit rate : 47 b/s
Frame rate : 0.186 FPS
Count of elements : 1019
Stream size : 31.9 KiB (0%)
Language : Polish
Default : No
Forced : No

Text #10
ID : 12
Format : UTF-8
Codec ID : S_TEXT/UTF8
Codec ID/Info : UTF-8 Plain Text
Duration : 1 h 31 min
Bit rate : 49 b/s
Frame rate : 0.203 FPS
Count of elements : 1108
Stream size : 33.1 KiB (0%)
Title : Brazilian
Language : Portuguese
Default : No
Forced : No

Text #11
ID : 13
Format : UTF-8
Codec ID : S_TEXT/UTF8
Codec ID/Info : UTF-8 Plain Text
Duration : 1 h 31 min
Bit rate : 47 b/s
Frame rate : 0.188 FPS
Count of elements : 1030
Stream size : 31.6 KiB (0%)
Title : European
Language : Portuguese
Default : No
Forced : No

Text #12
ID : 14
Format : UTF-8
Codec ID : S_TEXT/UTF8
Codec ID/Info : UTF-8 Plain Text
Duration : 1 h 31 min
Bit rate : 45 b/s
Frame rate : 0.140 FPS
Count of elements : 767
Stream size : 30.6 KiB (0%)
Language : Swedish
Default : No
Forced : No

Text #13
ID : 15
Format : UTF-8
Codec ID : S_TEXT/UTF8
Codec ID/Info : UTF-8 Plain Text
Duration : 1 h 31 min
Bit rate : 115 b/s
Frame rate : 0.201 FPS
Count of elements : 1101
Stream size : 77.3 KiB (0%)
Language : Thai
Default : No
Forced : No

[collapse]
Download Link(s)

Download

Direct download files get automatically deleted after a month or so. Posted on : 05/28/2024

[collapse]

Media information

General
Format : Matroska
Format version : Version 4
File size : 899 MiB
Duration : 1 h 32 min
Overall bit rate : 1 364 kb/s
Frame rate : 23.976 FPS
Movie name : Tarot.2024.720p.10bit.WEBRip.6CH.x265.HEVC

Video
ID : 1
Format : HEVC
Format/Info : High Efficiency Video Coding
Format profile : Main [email protected]@Main
Codec ID : V_MPEGH/ISO/HEVC
Duration : 1 h 32 min
Bit rate : 1 073 kb/s
Width : 1 280 pixels
Height : 536 pixels
Display aspect ratio : 2.40:1
Frame rate mode : Constant
Frame rate : 23.976 (24000/1001) FPS
Color space : YUV
Chroma subsampling : 4:2:0 (Type 0)
Bit depth : 10 bits
Bits/(Pixel*Frame) : 0.065
Stream size : 707 MiB (79%)
Default : Yes
Forced : No
Color range : Limited
Color primaries : BT.709
Transfer characteristics : BT.709
Matrix coefficients : BT.709

Audio
ID : 2
Format : E-AC-3
Format/Info : Enhanced AC-3
Commercial name : Dolby Digital Plus
Codec ID : A_EAC3
Duration : 1 h 32 min
Bit rate mode : Constant
Bit rate : 288 kb/s
Channel(s) : 6 channels
Channel layout : L R C LFE Ls Rs
Sampling rate : 48.0 kHz
Frame rate : 31.250 FPS (1536 SPF)
Bit depth : 32 bits
Compression mode : Lossy
Stream size : 190 MiB (21%)
Language : English
Service kind : Complete Main
Default : Yes
Forced : No
Dialog Normalization : -31 dB
dialnorm_Average : -31 dB
dialnorm_Minimum : -31 dB
dialnorm_Maximum : -31 dB

Text #1
ID : 3
Format : UTF-8
Codec ID : S_TEXT/UTF8
Codec ID/Info : UTF-8 Plain Text
Duration : 1 h 31 min
Bit rate : 57 b/s
Frame rate : 0.226 FPS
Count of elements : 1234
Stream size : 38.3 KiB (0%)
Language : English
Default : No
Forced : No

Text #2
ID : 4
Format : UTF-8
Codec ID : S_TEXT/UTF8
Codec ID/Info : UTF-8 Plain Text
Duration : 1 h 31 min
Bit rate : 64 b/s
Frame rate : 0.259 FPS
Count of elements : 1421
Stream size : 43.0 KiB (0%)
Title : SDH
Language : English
Default : Yes
Forced : No

Text #3
ID : 5
Format : UTF-8
Codec ID : S_TEXT/UTF8
Codec ID/Info : UTF-8 Plain Text
Duration : 1 h 31 min
Bit rate : 50 b/s
Frame rate : 0.214 FPS
Count of elements : 1170
Stream size : 33.6 KiB (0%)
Language : German
Default : No
Forced : No

Text #4
ID : 6
Format : UTF-8
Codec ID : S_TEXT/UTF8
Codec ID/Info : UTF-8 Plain Text
Duration : 1 h 31 min
Bit rate : 47 b/s
Frame rate : 0.199 FPS
Count of elements : 1091
Stream size : 31.7 KiB (0%)
Title : European
Language : Spanish
Default : No
Forced : No

Text #5
ID : 7
Format : UTF-8
Codec ID : S_TEXT/UTF8
Codec ID/Info : UTF-8 Plain Text
Duration : 1 h 31 min
Bit rate : 46 b/s
Frame rate : 0.231 FPS
Count of elements : 1266
Stream size : 31.2 KiB (0%)
Language : Finnish
Default : No
Forced : No

Text #6
ID : 8
Format : UTF-8
Codec ID : S_TEXT/UTF8
Codec ID/Info : UTF-8 Plain Text
Duration : 1 h 31 min
Bit rate : 42 b/s
Frame rate : 0.185 FPS
Count of elements : 1012
Stream size : 28.4 KiB (0%)
Title : European
Language : French
Default : No
Forced : No

Text #7
ID : 9
Format : UTF-8
Codec ID : S_TEXT/UTF8
Codec ID/Info : UTF-8 Plain Text
Duration : 1 h 31 min
Bit rate : 46 b/s
Frame rate : 0.187 FPS
Count of elements : 1022
Stream size : 31.4 KiB (0%)
Language : Italian
Default : No
Forced : No

Text #8
ID : 10
Format : UTF-8
Codec ID : S_TEXT/UTF8
Codec ID/Info : UTF-8 Plain Text
Duration : 1 h 31 min
Bit rate : 41 b/s
Frame rate : 0.139 FPS
Count of elements : 762
Stream size : 27.7 KiB (0%)
Language : Dutch
Default : No
Forced : No

Text #9
ID : 11
Format : UTF-8
Codec ID : S_TEXT/UTF8
Codec ID/Info : UTF-8 Plain Text
Duration : 1 h 31 min
Bit rate : 47 b/s
Frame rate : 0.186 FPS
Count of elements : 1019
Stream size : 31.9 KiB (0%)
Language : Polish
Default : No
Forced : No

Text #10
ID : 12
Format : UTF-8
Codec ID : S_TEXT/UTF8
Codec ID/Info : UTF-8 Plain Text
Duration : 1 h 31 min
Bit rate : 49 b/s
Frame rate : 0.203 FPS
Count of elements : 1108
Stream size : 33.1 KiB (0%)
Title : Brazilian
Language : Portuguese
Default : No
Forced : No

Text #11
ID : 13
Format : UTF-8
Codec ID : S_TEXT/UTF8
Codec ID/Info : UTF-8 Plain Text
Duration : 1 h 31 min
Bit rate : 47 b/s
Frame rate : 0.188 FPS
Count of elements : 1030
Stream size : 31.6 KiB (0%)
Title : European
Language : Portuguese
Default : No
Forced : No

Text #12
ID : 14
Format : UTF-8
Codec ID : S_TEXT/UTF8
Codec ID/Info : UTF-8 Plain Text
Duration : 1 h 31 min
Bit rate : 45 b/s
Frame rate : 0.140 FPS
Count of elements : 767
Stream size : 30.6 KiB (0%)
Language : Swedish
Default : No
Forced : No

Text #13
ID : 15
Format : UTF-8
Codec ID : S_TEXT/UTF8
Codec ID/Info : UTF-8 Plain Text
Duration : 1 h 31 min
Bit rate : 115 b/s
Frame rate : 0.201 FPS
Count of elements : 1101
Stream size : 77.3 KiB (0%)
Language : Thai
Default : No
Forced : No

[collapse]
Download Link(s)

Download

Direct download files get automatically deleted after a month or so. Posted on : 05/28/2024

[collapse]

Magnet Link

Magnet

Tarot.2024.1080p.AMZN.WEB-DL.DDP5.1.H.264-BYNDR.TGx-4.2 GB

[collapse]

You may also like...

error: nah :p~