Suncoast (2024)

R | 1h 49min | Drama

While caring for her brother along with her audacious mother , a teenager strikes up a friendship with an eccentric activist who is protesting one of the most landmark medical cases of all time.

Watch trailer

Media information

General
Format : Matroska
Format version : Version 4
File size : 1.57 GiB
Duration : 1 h 49 min
Overall bit rate : 2 046 kb/s
Frame rate : 24.000 FPS
Movie name : Suncoast.2024.1080p.10bit.WEBRip.6CH.x265.HEVC

Video
ID : 1
Format : HEVC
Format/Info : High Efficiency Video Coding
Format profile : Main 10@L4@Main
Codec ID : V_MPEGH/ISO/HEVC
Duration : 1 h 49 min
Bit rate : 1 839 kb/s
Width : 1 920 pixels
Height : 960 pixels
Display aspect ratio : 2.000
Frame rate mode : Constant
Frame rate : 24.000 FPS
Color space : YUV
Chroma subsampling : 4:2:0
Bit depth : 10 bits
Bits/(Pixel*Frame) : 0.042
Stream size : 1.41 GiB (90%)
Default : Yes
Forced : No
Color range : Limited
Color primaries : BT.709
Transfer characteristics : BT.709
Matrix coefficients : BT.709

Audio
ID : 2
Format : AAC LC SBR
Commercial name : HE-AAC
Format settings : Explicit
Codec ID : A_AAC-2
Duration : 1 h 49 min
Bit rate : 203 kb/s
Channel(s) : 6 channels
Channel layout : C L R Ls Rs LFE
Sampling rate : 48.0 kHz
Frame rate : 23.438 FPS (2048 SPF)
Compression mode : Lossy
Delay relative to video : 23 ms
Stream size : 159 MiB (10%)
Language : English
Default : Yes
Forced : No

Text #1
ID : 3
Format : UTF-8
Codec ID : S_TEXT/UTF8
Codec ID/Info : UTF-8 Plain Text
Duration : 1 h 41 min
Bit rate : 62 b/s
Frame rate : 0.229 FPS
Count of elements : 1393
Stream size : 46.4 KiB (0%)
Language : English
Default : No
Forced : No

Text #2
ID : 4
Format : UTF-8
Codec ID : S_TEXT/UTF8
Codec ID/Info : UTF-8 Plain Text
Duration : 1 h 42 min
Bit rate : 67 b/s
Frame rate : 0.239 FPS
Count of elements : 1463
Stream size : 50.3 KiB (0%)
Title : SDH
Language : English
Default : Yes
Forced : No

Text #3
ID : 5
Format : UTF-8
Codec ID : S_TEXT/UTF8
Codec ID/Info : UTF-8 Plain Text
Duration : 1 h 49 min
Bit rate : 45 b/s
Frame rate : 0.206 FPS
Count of elements : 1350
Stream size : 36.5 KiB (0%)
Language : Czech
Default : No
Forced : No

Text #4
ID : 6
Format : UTF-8
Codec ID : S_TEXT/UTF8
Codec ID/Info : UTF-8 Plain Text
Duration : 1 h 49 min
Bit rate : 46 b/s
Frame rate : 0.184 FPS
Count of elements : 1207
Stream size : 37.5 KiB (0%)
Language : Danish
Default : No
Forced : No

Text #5
ID : 7
Format : UTF-8
Codec ID : S_TEXT/UTF8
Codec ID/Info : UTF-8 Plain Text
Duration : 1 h 49 min
Bit rate : 51 b/s
Frame rate : 0.201 FPS
Count of elements : 1316
Stream size : 41.0 KiB (0%)
Language : German
Default : No
Forced : No

Text #6
ID : 8
Format : UTF-8
Codec ID : S_TEXT/UTF8
Codec ID/Info : UTF-8 Plain Text
Duration : 1 h 49 min
Bit rate : 79 b/s
Frame rate : 0.200 FPS
Count of elements : 1312
Stream size : 63.6 KiB (0%)
Language : Greek
Default : No
Forced : No

Text #7
ID : 9
Format : UTF-8
Codec ID : S_TEXT/UTF8
Codec ID/Info : UTF-8 Plain Text
Duration : 1 h 49 min
Bit rate : 47 b/s
Frame rate : 0.209 FPS
Count of elements : 1366
Stream size : 38.2 KiB (0%)
Title : Latin American
Language : Spanish (Latin America)
Default : No
Forced : No

Text #8
ID : 10
Format : UTF-8
Codec ID : S_TEXT/UTF8
Codec ID/Info : UTF-8 Plain Text
Duration : 1 h 49 min
Bit rate : 49 b/s
Frame rate : 0.202 FPS
Count of elements : 1321
Stream size : 39.4 KiB (0%)
Language : Spanish (ES)
Default : No
Forced : No

Text #9
ID : 11
Format : UTF-8
Codec ID : S_TEXT/UTF8
Codec ID/Info : UTF-8 Plain Text
Duration : 1 h 48 min
Bit rate : 42 b/s
Frame rate : 0.151 FPS
Count of elements : 981
Stream size : 34.0 KiB (0%)
Language : Finnish
Default : No
Forced : No

Text #10
ID : 12
Format : UTF-8
Codec ID : S_TEXT/UTF8
Codec ID/Info : UTF-8 Plain Text
Duration : 1 h 49 min
Bit rate : 48 b/s
Frame rate : 0.197 FPS
Count of elements : 1290
Stream size : 38.6 KiB (0%)
Language : French (FR)
Default : No
Forced : No

Text #11
ID : 13
Format : UTF-8
Codec ID : S_TEXT/UTF8
Codec ID/Info : UTF-8 Plain Text
Duration : 1 h 49 min
Bit rate : 48 b/s
Frame rate : 0.207 FPS
Count of elements : 1356
Stream size : 38.6 KiB (0%)
Language : Hungarian
Default : No
Forced : No

Text #12
ID : 14
Format : UTF-8
Codec ID : S_TEXT/UTF8
Codec ID/Info : UTF-8 Plain Text
Duration : 1 h 49 min
Bit rate : 49 b/s
Frame rate : 0.204 FPS
Count of elements : 1338
Stream size : 39.7 KiB (0%)
Language : Italian
Default : No
Forced : No

Text #13
ID : 15
Format : UTF-8
Codec ID : S_TEXT/UTF8
Codec ID/Info : UTF-8 Plain Text
Duration : 1 h 49 min
Bit rate : 45 b/s
Frame rate : 0.220 FPS
Count of elements : 1441
Stream size : 36.3 KiB (0%)
Language : Japanese
Default : No
Forced : No

Text #14
ID : 16
Format : UTF-8
Codec ID : S_TEXT/UTF8
Codec ID/Info : UTF-8 Plain Text
Duration : 1 h 49 min
Bit rate : 62 b/s
Frame rate : 0.217 FPS
Count of elements : 1419
Stream size : 49.7 KiB (0%)
Language : Korean
Default : No
Forced : No

Text #15
ID : 17
Format : UTF-8
Codec ID : S_TEXT/UTF8
Codec ID/Info : UTF-8 Plain Text
Duration : 1 h 49 min
Bit rate : 44 b/s
Frame rate : 0.178 FPS
Count of elements : 1166
Stream size : 35.9 KiB (0%)
Language : Dutch
Default : No
Forced : No

Text #16
ID : 18
Format : UTF-8
Codec ID : S_TEXT/UTF8
Codec ID/Info : UTF-8 Plain Text
Duration : 1 h 49 min
Bit rate : 49 b/s
Frame rate : 0.164 FPS
Count of elements : 1073
Stream size : 39.2 KiB (0%)
Language : Norwegian
Default : No
Forced : No

Text #17
ID : 19
Format : UTF-8
Codec ID : S_TEXT/UTF8
Codec ID/Info : UTF-8 Plain Text
Duration : 1 h 42 min
Bit rate : 48 b/s
Frame rate : 0.220 FPS
Count of elements : 1351
Stream size : 36.4 KiB (0%)
Language : Polish
Default : No
Forced : No

Text #18
ID : 20
Format : UTF-8
Codec ID : S_TEXT/UTF8
Codec ID/Info : UTF-8 Plain Text
Duration : 1 h 49 min
Bit rate : 49 b/s
Frame rate : 0.206 FPS
Count of elements : 1351
Stream size : 39.4 KiB (0%)
Title : Brazilian
Language : Portuguese (BR)
Default : No
Forced : No

Text #19
ID : 21
Format : UTF-8
Codec ID : S_TEXT/UTF8
Codec ID/Info : UTF-8 Plain Text
Duration : 1 h 49 min
Bit rate : 51 b/s
Frame rate : 0.206 FPS
Count of elements : 1346
Stream size : 41.0 KiB (0%)
Language : Portuguese (PT)
Default : No
Forced : No

Text #20
ID : 22
Format : UTF-8
Codec ID : S_TEXT/UTF8
Codec ID/Info : UTF-8 Plain Text
Duration : 1 h 49 min
Bit rate : 50 b/s
Frame rate : 0.201 FPS
Count of elements : 1314
Stream size : 40.4 KiB (0%)
Language : Romanian
Default : No
Forced : No

Text #21
ID : 23
Format : UTF-8
Codec ID : S_TEXT/UTF8
Codec ID/Info : UTF-8 Plain Text
Duration : 1 h 40 min
Bit rate : 52 b/s
Frame rate : 0.224 FPS
Count of elements : 1359
Stream size : 38.5 KiB (0%)
Language : Slovak
Default : No
Forced : No

Text #22
ID : 24
Format : UTF-8
Codec ID : S_TEXT/UTF8
Codec ID/Info : UTF-8 Plain Text
Duration : 1 h 49 min
Bit rate : 50 b/s
Frame rate : 0.178 FPS
Count of elements : 1167
Stream size : 40.2 KiB (0%)
Language : Swedish
Default : No
Forced : No

Text #23
ID : 25
Format : UTF-8
Codec ID : S_TEXT/UTF8
Codec ID/Info : UTF-8 Plain Text
Duration : 1 h 49 min
Bit rate : 48 b/s
Frame rate : 0.205 FPS
Count of elements : 1339
Stream size : 39.1 KiB (0%)
Language : Turkish
Default : No
Forced : No

Text #24
ID : 26
Format : UTF-8
Codec ID : S_TEXT/UTF8
Codec ID/Info : UTF-8 Plain Text
Duration : 1 h 42 min
Bit rate : 45 b/s
Frame rate : 0.221 FPS
Count of elements : 1358
Stream size : 34.0 KiB (0%)
Title : Traditional
Language : Chinese (Traditional)
Default : No
Forced : No

[collapse]
Download Link(s)

Download

Direct download files get automatically deleted after a month or so. Posted on : 02/10/2024

[collapse]
Magnet Link

Magnet

Suncoast.2024.1080p.WEB.H264-AccomplishedYak.TGx-3.9 GB

[collapse]

Media information

General
Format : Matroska
Format version : Version 4
File size : 781 MiB
Duration : 1 h 49 min
Overall bit rate : 995 kb/s
Frame rate : 24.000 FPS
Movie name : Suncoast.2024.720p.10bit.WEBRip.6CH.x265.HEVC

Video
ID : 1
Format : HEVC
Format/Info : High Efficiency Video Coding
Format profile : Main [email protected]@Main
Codec ID : V_MPEGH/ISO/HEVC
Duration : 1 h 49 min
Bit rate : 788 kb/s
Width : 1 280 pixels
Height : 640 pixels
Display aspect ratio : 2.000
Frame rate mode : Constant
Frame rate : 24.000 FPS
Color space : YUV
Chroma subsampling : 4:2:0
Bit depth : 10 bits
Bits/(Pixel*Frame) : 0.040
Stream size : 618 MiB (79%)
Default : Yes
Forced : No
Color range : Limited
Color primaries : BT.709
Transfer characteristics : BT.709
Matrix coefficients : BT.709

Audio
ID : 2
Format : AAC LC SBR
Commercial name : HE-AAC
Format settings : Explicit
Codec ID : A_AAC-2
Duration : 1 h 49 min
Bit rate : 203 kb/s
Channel(s) : 6 channels
Channel layout : C L R Ls Rs LFE
Sampling rate : 48.0 kHz
Frame rate : 23.438 FPS (2048 SPF)
Compression mode : Lossy
Delay relative to video : 23 ms
Stream size : 159 MiB (20%)
Language : English
Default : Yes
Forced : No

Text #1
ID : 3
Format : UTF-8
Codec ID : S_TEXT/UTF8
Codec ID/Info : UTF-8 Plain Text
Duration : 1 h 41 min
Bit rate : 62 b/s
Frame rate : 0.229 FPS
Count of elements : 1393
Stream size : 46.4 KiB (0%)
Language : English
Default : No
Forced : No

Text #2
ID : 4
Format : UTF-8
Codec ID : S_TEXT/UTF8
Codec ID/Info : UTF-8 Plain Text
Duration : 1 h 42 min
Bit rate : 67 b/s
Frame rate : 0.239 FPS
Count of elements : 1463
Stream size : 50.3 KiB (0%)
Title : SDH
Language : English
Default : Yes
Forced : No

Text #3
ID : 5
Format : UTF-8
Codec ID : S_TEXT/UTF8
Codec ID/Info : UTF-8 Plain Text
Duration : 1 h 49 min
Bit rate : 45 b/s
Frame rate : 0.206 FPS
Count of elements : 1350
Stream size : 36.5 KiB (0%)
Language : Czech
Default : No
Forced : No

Text #4
ID : 6
Format : UTF-8
Codec ID : S_TEXT/UTF8
Codec ID/Info : UTF-8 Plain Text
Duration : 1 h 49 min
Bit rate : 46 b/s
Frame rate : 0.184 FPS
Count of elements : 1207
Stream size : 37.5 KiB (0%)
Language : Danish
Default : No
Forced : No

Text #5
ID : 7
Format : UTF-8
Codec ID : S_TEXT/UTF8
Codec ID/Info : UTF-8 Plain Text
Duration : 1 h 49 min
Bit rate : 51 b/s
Frame rate : 0.201 FPS
Count of elements : 1316
Stream size : 41.0 KiB (0%)
Language : German
Default : No
Forced : No

Text #6
ID : 8
Format : UTF-8
Codec ID : S_TEXT/UTF8
Codec ID/Info : UTF-8 Plain Text
Duration : 1 h 49 min
Bit rate : 79 b/s
Frame rate : 0.200 FPS
Count of elements : 1312
Stream size : 63.6 KiB (0%)
Language : Greek
Default : No
Forced : No

Text #7
ID : 9
Format : UTF-8
Codec ID : S_TEXT/UTF8
Codec ID/Info : UTF-8 Plain Text
Duration : 1 h 49 min
Bit rate : 47 b/s
Frame rate : 0.209 FPS
Count of elements : 1366
Stream size : 38.2 KiB (0%)
Title : Latin American
Language : Spanish (Latin America)
Default : No
Forced : No

Text #8
ID : 10
Format : UTF-8
Codec ID : S_TEXT/UTF8
Codec ID/Info : UTF-8 Plain Text
Duration : 1 h 49 min
Bit rate : 49 b/s
Frame rate : 0.202 FPS
Count of elements : 1321
Stream size : 39.4 KiB (0%)
Language : Spanish (ES)
Default : No
Forced : No

Text #9
ID : 11
Format : UTF-8
Codec ID : S_TEXT/UTF8
Codec ID/Info : UTF-8 Plain Text
Duration : 1 h 48 min
Bit rate : 42 b/s
Frame rate : 0.151 FPS
Count of elements : 981
Stream size : 34.0 KiB (0%)
Language : Finnish
Default : No
Forced : No

Text #10
ID : 12
Format : UTF-8
Codec ID : S_TEXT/UTF8
Codec ID/Info : UTF-8 Plain Text
Duration : 1 h 49 min
Bit rate : 48 b/s
Frame rate : 0.197 FPS
Count of elements : 1290
Stream size : 38.6 KiB (0%)
Language : French (FR)
Default : No
Forced : No

Text #11
ID : 13
Format : UTF-8
Codec ID : S_TEXT/UTF8
Codec ID/Info : UTF-8 Plain Text
Duration : 1 h 49 min
Bit rate : 48 b/s
Frame rate : 0.207 FPS
Count of elements : 1356
Stream size : 38.6 KiB (0%)
Language : Hungarian
Default : No
Forced : No

Text #12
ID : 14
Format : UTF-8
Codec ID : S_TEXT/UTF8
Codec ID/Info : UTF-8 Plain Text
Duration : 1 h 49 min
Bit rate : 49 b/s
Frame rate : 0.204 FPS
Count of elements : 1338
Stream size : 39.7 KiB (0%)
Language : Italian
Default : No
Forced : No

Text #13
ID : 15
Format : UTF-8
Codec ID : S_TEXT/UTF8
Codec ID/Info : UTF-8 Plain Text
Duration : 1 h 49 min
Bit rate : 45 b/s
Frame rate : 0.220 FPS
Count of elements : 1441
Stream size : 36.3 KiB (0%)
Language : Japanese
Default : No
Forced : No

Text #14
ID : 16
Format : UTF-8
Codec ID : S_TEXT/UTF8
Codec ID/Info : UTF-8 Plain Text
Duration : 1 h 49 min
Bit rate : 62 b/s
Frame rate : 0.217 FPS
Count of elements : 1419
Stream size : 49.7 KiB (0%)
Language : Korean
Default : No
Forced : No

Text #15
ID : 17
Format : UTF-8
Codec ID : S_TEXT/UTF8
Codec ID/Info : UTF-8 Plain Text
Duration : 1 h 49 min
Bit rate : 44 b/s
Frame rate : 0.178 FPS
Count of elements : 1166
Stream size : 35.9 KiB (0%)
Language : Dutch
Default : No
Forced : No

Text #16
ID : 18
Format : UTF-8
Codec ID : S_TEXT/UTF8
Codec ID/Info : UTF-8 Plain Text
Duration : 1 h 49 min
Bit rate : 49 b/s
Frame rate : 0.164 FPS
Count of elements : 1073
Stream size : 39.2 KiB (0%)
Language : Norwegian
Default : No
Forced : No

Text #17
ID : 19
Format : UTF-8
Codec ID : S_TEXT/UTF8
Codec ID/Info : UTF-8 Plain Text
Duration : 1 h 42 min
Bit rate : 48 b/s
Frame rate : 0.220 FPS
Count of elements : 1351
Stream size : 36.4 KiB (0%)
Language : Polish
Default : No
Forced : No

Text #18
ID : 20
Format : UTF-8
Codec ID : S_TEXT/UTF8
Codec ID/Info : UTF-8 Plain Text
Duration : 1 h 49 min
Bit rate : 49 b/s
Frame rate : 0.206 FPS
Count of elements : 1351
Stream size : 39.4 KiB (0%)
Title : Brazilian
Language : Portuguese (BR)
Default : No
Forced : No

Text #19
ID : 21
Format : UTF-8
Codec ID : S_TEXT/UTF8
Codec ID/Info : UTF-8 Plain Text
Duration : 1 h 49 min
Bit rate : 51 b/s
Frame rate : 0.206 FPS
Count of elements : 1346
Stream size : 41.0 KiB (0%)
Language : Portuguese (PT)
Default : No
Forced : No

Text #20
ID : 22
Format : UTF-8
Codec ID : S_TEXT/UTF8
Codec ID/Info : UTF-8 Plain Text
Duration : 1 h 49 min
Bit rate : 50 b/s
Frame rate : 0.201 FPS
Count of elements : 1314
Stream size : 40.4 KiB (0%)
Language : Romanian
Default : No
Forced : No

Text #21
ID : 23
Format : UTF-8
Codec ID : S_TEXT/UTF8
Codec ID/Info : UTF-8 Plain Text
Duration : 1 h 40 min
Bit rate : 52 b/s
Frame rate : 0.224 FPS
Count of elements : 1359
Stream size : 38.5 KiB (0%)
Language : Slovak
Default : No
Forced : No

Text #22
ID : 24
Format : UTF-8
Codec ID : S_TEXT/UTF8
Codec ID/Info : UTF-8 Plain Text
Duration : 1 h 49 min
Bit rate : 50 b/s
Frame rate : 0.178 FPS
Count of elements : 1167
Stream size : 40.2 KiB (0%)
Language : Swedish
Default : No
Forced : No

Text #23
ID : 25
Format : UTF-8
Codec ID : S_TEXT/UTF8
Codec ID/Info : UTF-8 Plain Text
Duration : 1 h 49 min
Bit rate : 48 b/s
Frame rate : 0.205 FPS
Count of elements : 1339
Stream size : 39.1 KiB (0%)
Language : Turkish
Default : No
Forced : No

Text #24
ID : 26
Format : UTF-8
Codec ID : S_TEXT/UTF8
Codec ID/Info : UTF-8 Plain Text
Duration : 1 h 42 min
Bit rate : 45 b/s
Frame rate : 0.221 FPS
Count of elements : 1358
Stream size : 34.0 KiB (0%)
Title : Traditional
Language : Chinese (Traditional)
Default : No
Forced : No

[collapse]
Download Link(s)

Download

Direct download files get automatically deleted after a month or so. Posted on : 02/10/2024

[collapse]
Magnet Link

Magnet

Suncoast.2024.1080p.WEB.H264-AccomplishedYak.TGx-3.9 GB

[collapse]

You may also like...

error: nah :p~