Special Delivery (2022)

1h 49min | Action, Crime, Thriller

“I deliver everything that the post office service does not handle.” Eun-ha, who is a normal junkyard employee, secretly works as a delivery clerk that deals with unusual delivery requests.

Watch trailer

Media information

General
Format : Matroska
Format version : Version 4
File size : 1.79 GiB
Duration : 1 h 48 min
Overall bit rate : 2 355 kb/s
Movie name : Special.Delivery.2022.KOREAN.1080p.10bit.BluRay.6CH.x265.HEVC

Video
ID : 1
Format : HEVC
Format/Info : High Efficiency Video Coding
Format profile : Main 10@L4@Main
Codec ID : V_MPEGH/ISO/HEVC
Duration : 1 h 48 min
Bit rate : 1 969 kb/s
Width : 1 920 pixels
Height : 804 pixels
Display aspect ratio : 2.40:1
Frame rate mode : Constant
Frame rate : 23.976 (24000/1001) FPS
Color space : YUV
Chroma subsampling : 4:2:0 (Type 0)
Bit depth : 10 bits
Bits/(Pixel*Frame) : 0.053
Stream size : 1.50 GiB (84%)
Default : Yes
Forced : No
Color range : Limited
Color primaries : BT.709
Matrix coefficients : BT.709

Audio
ID : 2
Format : E-AC-3
Format/Info : Enhanced AC-3
Commercial name : Dolby Digital Plus
Codec ID : A_EAC3
Duration : 1 h 48 min
Bit rate mode : Constant
Bit rate : 384 kb/s
Channel(s) : 6 channels
Channel layout : L R C LFE Ls Rs
Sampling rate : 48.0 kHz
Frame rate : 31.250 FPS (1536 SPF)
Bit depth : 32 bits
Compression mode : Lossy
Delay relative to video : -5 ms
Stream size : 299 MiB (16%)
Language : Korean
Service kind : Complete Main
Default : Yes
Forced : No

Text
ID : 3
Format : UTF-8
Codec ID : S_TEXT/UTF8
Codec ID/Info : UTF-8 Plain Text
Duration : 1 h 45 min
Bit rate : 37 b/s
Frame rate : 0.169 FPS
Count of elements : 1064
Stream size : 28.7 KiB (0%)
Language : English
Default : Yes
Forced : No

[collapse]
Download Link(s)

Download

Direct download files get automatically deleted after a month or so. Posted on : 07/11/2022

[collapse]
Magnet Link

Magnet

Special.Delivery.2022.KOREAN.1080p.BluRay.x264.DDP5.1-c0kE-14.27 GB

[collapse]

Media information

General
Format : Matroska
Format version : Version 4
File size : 937 MiB
Duration : 1 h 48 min
Overall bit rate : 1 203 kb/s
Movie name : Special.Delivery.2022.KOREAN.720p.10bit.BluRay.6CH.x265.HEVC

Video
ID : 1
Format : HEVC
Format/Info : High Efficiency Video Coding
Format profile : Main [email protected]@Main
Codec ID : V_MPEGH/ISO/HEVC
Duration : 1 h 48 min
Bit rate : 913 kb/s
Width : 1 280 pixels
Height : 536 pixels
Display aspect ratio : 2.40:1
Frame rate mode : Constant
Frame rate : 23.976 (24000/1001) FPS
Color space : YUV
Chroma subsampling : 4:2:0 (Type 0)
Bit depth : 10 bits
Bits/(Pixel*Frame) : 0.055
Stream size : 711 MiB (76%)
Default : No
Forced : No
Color range : Limited
Color primaries : BT.709
Matrix coefficients : BT.709

Audio
ID : 2
Format : AAC LC
Codec ID : A_AAC-2
Duration : 1 h 48 min
Bit rate : 288 kb/s
Channel(s) : 6 channels
Channel layout : L R C Cb Lb Rb
Sampling rate : 48.0 kHz
Frame rate : 46.875 FPS (1024 SPF)
Compression mode : Lossy
Delay relative to video : -21 ms
Stream size : 224 MiB (24%)
Language : Korean
Default : Yes
Forced : No

Text
ID : 3
Format : UTF-8
Codec ID : S_TEXT/UTF8
Codec ID/Info : UTF-8 Plain Text
Duration : 1 h 45 min
Bit rate : 37 b/s
Frame rate : 0.169 FPS
Count of elements : 1064
Stream size : 28.7 KiB (0%)
Language : English
Default : Yes
Forced : No

[collapse]
Download Link(s)

Download

Direct download files get automatically deleted after a month or so. Posted on : 07/11/2022

[collapse]
Magnet Link

Magnet

Special.Delivery.2022.KOREAN.1080p.BluRay.x264.DDP5.1-c0kE-14.27 GB

[collapse]

You may also like...

error: nah :p~
- Last modified: June 19, 2024 09:36 (Asia/Nicosia UTC:2) -->