Space Cadet (2024)

PG-13 | 1h 50min | Comedy

Rex, a Florida party girl, turns out to be the only hope for the NASA space program after a fluke puts her in training with other candidates who may have better resum├ęs, but don’t have her smarts, heart, and moxie.

Watch trailer

Media information

General
Format : Matroska
Format version : Version 4
File size : 1.53 GiB
Duration : 1 h 50 min
Overall bit rate : 1 979 kb/s
Frame rate : 23.976 FPS
Movie name : Space.Cadet.2024.1080p.10bit.WEBRip.6CH.x265.HEVC

Video
ID : 1
Format : HEVC
Format/Info : High Efficiency Video Coding
Format profile : Main 10@L4@Main
Codec ID : V_MPEGH/ISO/HEVC
Duration : 1 h 50 min
Bit rate : 1 771 kb/s
Width : 1 920 pixels
Height : 960 pixels
Display aspect ratio : 2.000
Frame rate mode : Constant
Frame rate : 23.976 (24000/1001) FPS
Color space : YUV
Chroma subsampling : 4:2:0
Bit depth : 10 bits
Bits/(Pixel*Frame) : 0.040
Stream size : 1.37 GiB (89%)
Default : Yes
Forced : No
Color range : Limited
Color primaries : BT.709
Transfer characteristics : BT.709
Matrix coefficients : BT.709

Audio
ID : 2
Format : AAC LC SBR
Commercial name : HE-AAC
Format settings : Explicit
Codec ID : A_AAC-2
Duration : 1 h 50 min
Bit rate : 202 kb/s
Channel(s) : 6 channels
Channel layout : C L R Ls Rs LFE
Sampling rate : 48.0 kHz
Frame rate : 23.438 FPS (2048 SPF)
Compression mode : Lossy
Delay relative to video : 23 ms
Stream size : 160 MiB (10%)
Language : English
Default : Yes
Forced : No

Text #1
ID : 3
Format : UTF-8
Codec ID : S_TEXT/UTF8
Codec ID/Info : UTF-8 Plain Text
Duration : 1 h 40 min
Bit rate : 74 b/s
Frame rate : 0.281 FPS
Count of elements : 1694
Stream size : 55.0 KiB (0%)
Language : English (US)
Default : No
Forced : No

Text #2
ID : 4
Format : UTF-8
Codec ID : S_TEXT/UTF8
Codec ID/Info : UTF-8 Plain Text
Duration : 1 min 1 s
Bit rate : 33 b/s
Frame rate : 0.098 FPS
Count of elements : 6
Stream size : 257 Bytes (0%)
Title : Forced
Language : English (US)
Default : No
Forced : Yes

Text #3
ID : 5
Format : UTF-8
Codec ID : S_TEXT/UTF8
Codec ID/Info : UTF-8 Plain Text
Duration : 1 h 40 min
Bit rate : 80 b/s
Frame rate : 0.302 FPS
Count of elements : 1819
Stream size : 59.2 KiB (0%)
Title : SDH
Language : English (US)
Default : Yes
Forced : No

Text #4
ID : 6
Format : UTF-8
Codec ID : S_TEXT/UTF8
Codec ID/Info : UTF-8 Plain Text
Duration : 1 h 48 min
Bit rate : 110 b/s
Frame rate : 0.235 FPS
Count of elements : 1537
Stream size : 88.3 KiB (0%)
Language : Arabic (001)
Default : No
Forced : No

Text #5
ID : 7
Format : UTF-8
Codec ID : S_TEXT/UTF8
Codec ID/Info : UTF-8 Plain Text
Duration : 1 h 48 min
Bit rate : 64 b/s
Frame rate : 0.234 FPS
Count of elements : 1529
Stream size : 51.0 KiB (0%)
Language : Czech (CZ)
Default : No
Forced : No

Text #6
ID : 8
Format : UTF-8
Codec ID : S_TEXT/UTF8
Codec ID/Info : UTF-8 Plain Text
Duration : 1 h 48 min
Bit rate : 60 b/s
Frame rate : 0.227 FPS
Count of elements : 1485
Stream size : 48.4 KiB (0%)
Language : Danish (DK)
Default : No
Forced : No

Text #7
ID : 9
Format : UTF-8
Codec ID : S_TEXT/UTF8
Codec ID/Info : UTF-8 Plain Text
Duration : 1 h 48 min
Bit rate : 64 b/s
Frame rate : 0.233 FPS
Count of elements : 1519
Stream size : 51.6 KiB (0%)
Language : German (DE)
Default : No
Forced : No

Text #8
ID : 10
Format : UTF-8
Codec ID : S_TEXT/UTF8
Codec ID/Info : UTF-8 Plain Text
Duration : 1 h 48 min
Bit rate : 112 b/s
Frame rate : 0.235 FPS
Count of elements : 1534
Stream size : 89.5 KiB (0%)
Language : Greek (GR)
Default : No
Forced : No

Text #9
ID : 11
Format : UTF-8
Codec ID : S_TEXT/UTF8
Codec ID/Info : UTF-8 Plain Text
Duration : 1 h 48 min
Bit rate : 64 b/s
Frame rate : 0.234 FPS
Count of elements : 1525
Stream size : 51.3 KiB (0%)
Language : Spanish (ES)
Default : No
Forced : No

Text #10
ID : 12
Format : UTF-8
Codec ID : S_TEXT/UTF8
Codec ID/Info : UTF-8 Plain Text
Duration : 1 h 48 min
Bit rate : 58 b/s
Frame rate : 0.231 FPS
Count of elements : 1511
Stream size : 46.8 KiB (0%)
Language : Finnish (FI)
Default : No
Forced : No

Text #11
ID : 13
Format : UTF-8
Codec ID : S_TEXT/UTF8
Codec ID/Info : UTF-8 Plain Text
Duration : 1 h 48 min
Bit rate : 66 b/s
Frame rate : 0.227 FPS
Count of elements : 1483
Stream size : 53.1 KiB (0%)
Title : Canadian
Language : French (CA)
Default : No
Forced : No

Text #12
ID : 14
Format : UTF-8
Codec ID : S_TEXT/UTF8
Codec ID/Info : UTF-8 Plain Text
Duration : 1 h 48 min
Bit rate : 63 b/s
Frame rate : 0.232 FPS
Count of elements : 1514
Stream size : 50.3 KiB (0%)
Language : French (FR)
Default : No
Forced : No

Text #13
ID : 15
Format : UTF-8
Codec ID : S_TEXT/UTF8
Codec ID/Info : UTF-8 Plain Text
Duration : 1 h 48 min
Bit rate : 100 b/s
Frame rate : 0.235 FPS
Count of elements : 1536
Stream size : 80.0 KiB (0%)
Language : Hebrew (IL)
Default : No
Forced : No

Text #14
ID : 16
Format : UTF-8
Codec ID : S_TEXT/UTF8
Codec ID/Info : UTF-8 Plain Text
Duration : 1 h 48 min
Bit rate : 167 b/s
Frame rate : 0.235 FPS
Count of elements : 1536
Stream size : 133 KiB (0%)
Language : Hindi (IN)
Default : No
Forced : No

Text #15
ID : 17
Format : UTF-8
Codec ID : S_TEXT/UTF8
Codec ID/Info : UTF-8 Plain Text
Duration : 1 h 48 min
Bit rate : 65 b/s
Frame rate : 0.233 FPS
Count of elements : 1519
Stream size : 52.6 KiB (0%)
Language : Hungarian (HU)
Default : No
Forced : No

Text #16
ID : 18
Format : UTF-8
Codec ID : S_TEXT/UTF8
Codec ID/Info : UTF-8 Plain Text
Duration : 1 h 48 min
Bit rate : 61 b/s
Frame rate : 0.234 FPS
Count of elements : 1528
Stream size : 49.2 KiB (0%)
Language : Indonesian (ID)
Default : No
Forced : No

Text #17
ID : 19
Format : UTF-8
Codec ID : S_TEXT/UTF8
Codec ID/Info : UTF-8 Plain Text
Duration : 1 h 48 min
Bit rate : 65 b/s
Frame rate : 0.234 FPS
Count of elements : 1525
Stream size : 51.9 KiB (0%)
Language : Italian (IT)
Default : No
Forced : No

Text #18
ID : 20
Format : UTF-8
Codec ID : S_TEXT/UTF8
Codec ID/Info : UTF-8 Plain Text
Duration : 1 h 48 min
Bit rate : 73 b/s
Frame rate : 0.235 FPS
Count of elements : 1533
Stream size : 58.7 KiB (0%)
Language : Korean (KR)
Default : No
Forced : No

Text #19
ID : 21
Format : UTF-8
Codec ID : S_TEXT/UTF8
Codec ID/Info : UTF-8 Plain Text
Duration : 1 h 48 min
Bit rate : 66 b/s
Frame rate : 0.233 FPS
Count of elements : 1524
Stream size : 53.3 KiB (0%)
Language : Malay (MY)
Default : No
Forced : No

Text #20
ID : 22
Format : UTF-8
Codec ID : S_TEXT/UTF8
Codec ID/Info : UTF-8 Plain Text
Duration : 1 h 48 min
Bit rate : 60 b/s
Frame rate : 0.233 FPS
Count of elements : 1522
Stream size : 48.6 KiB (0%)
Language : Norwegian Bokmal (NO)
Default : No
Forced : No

Text #21
ID : 23
Format : UTF-8
Codec ID : S_TEXT/UTF8
Codec ID/Info : UTF-8 Plain Text
Duration : 1 h 48 min
Bit rate : 59 b/s
Frame rate : 0.231 FPS
Count of elements : 1509
Stream size : 47.2 KiB (0%)
Language : Dutch (NL)
Default : No
Forced : No

Text #22
ID : 24
Format : UTF-8
Codec ID : S_TEXT/UTF8
Codec ID/Info : UTF-8 Plain Text
Duration : 1 h 48 min
Bit rate : 61 b/s
Frame rate : 0.233 FPS
Count of elements : 1520
Stream size : 48.7 KiB (0%)
Language : Polish (PL)
Default : No
Forced : No

Text #23
ID : 25
Format : UTF-8
Codec ID : S_TEXT/UTF8
Codec ID/Info : UTF-8 Plain Text
Duration : 1 h 48 min
Bit rate : 60 b/s
Frame rate : 0.234 FPS
Count of elements : 1529
Stream size : 48.4 KiB (0%)
Title : Brazilian
Language : Portuguese (BR)
Default : No
Forced : No

Text #24
ID : 26
Format : UTF-8
Codec ID : S_TEXT/UTF8
Codec ID/Info : UTF-8 Plain Text
Duration : 1 h 48 min
Bit rate : 68 b/s
Frame rate : 0.233 FPS
Count of elements : 1523
Stream size : 54.4 KiB (0%)
Language : Portuguese (PT)
Default : No
Forced : No

Text #25
ID : 27
Format : UTF-8
Codec ID : S_TEXT/UTF8
Codec ID/Info : UTF-8 Plain Text
Duration : 1 h 48 min
Bit rate : 67 b/s
Frame rate : 0.233 FPS
Count of elements : 1522
Stream size : 54.1 KiB (0%)
Language : Romanian (RO)
Default : No
Forced : No

Text #26
ID : 28
Format : UTF-8
Codec ID : S_TEXT/UTF8
Codec ID/Info : UTF-8 Plain Text
Duration : 1 h 48 min
Bit rate : 64 b/s
Frame rate : 0.233 FPS
Count of elements : 1524
Stream size : 51.4 KiB (0%)
Language : Swedish (SE)
Default : No
Forced : No

Text #27
ID : 29
Format : UTF-8
Codec ID : S_TEXT/UTF8
Codec ID/Info : UTF-8 Plain Text
Duration : 1 h 48 min
Bit rate : 165 b/s
Frame rate : 0.235 FPS
Count of elements : 1536
Stream size : 132 KiB (0%)
Language : Thai (TH)
Default : No
Forced : No

Text #28
ID : 30
Format : UTF-8
Codec ID : S_TEXT/UTF8
Codec ID/Info : UTF-8 Plain Text
Duration : 1 h 48 min
Bit rate : 62 b/s
Frame rate : 0.234 FPS
Count of elements : 1528
Stream size : 49.8 KiB (0%)
Language : Turkish (TR)
Default : No
Forced : No

Text #29
ID : 31
Format : UTF-8
Codec ID : S_TEXT/UTF8
Codec ID/Info : UTF-8 Plain Text
Duration : 1 h 48 min
Bit rate : 58 b/s
Frame rate : 0.235 FPS
Count of elements : 1535
Stream size : 46.6 KiB (0%)
Title : Simplified
Language : Chinese (Simplified)
Default : No
Forced : No

Text #30
ID : 32
Format : UTF-8
Codec ID : S_TEXT/UTF8
Codec ID/Info : UTF-8 Plain Text
Duration : 1 h 48 min
Bit rate : 59 b/s
Frame rate : 0.235 FPS
Count of elements : 1535
Stream size : 47.1 KiB (0%)
Title : Traditional
Language : Chinese (Traditional)
Default : No
Forced : No

[collapse]
Download Link(s)

Download

Direct download files get automatically deleted after a month or so. Posted on : 07/04/2024

[collapse]

Media information

General
Format : Matroska
Format version : Version 4
File size : 798 MiB
Duration : 1 h 50 min
Overall bit rate : 1 007 kb/s
Frame rate : 23.976 FPS
Movie name : Space.Cadet.2024.720p.10bit.WEBRip.6CH.x265.HEVC

Video
ID : 1
Format : HEVC
Format/Info : High Efficiency Video Coding
Format profile : Main [email protected]@Main
Codec ID : V_MPEGH/ISO/HEVC
Duration : 1 h 50 min
Bit rate : 799 kb/s
Width : 1 280 pixels
Height : 640 pixels
Display aspect ratio : 2.000
Frame rate mode : Constant
Frame rate : 23.976 (24000/1001) FPS
Color space : YUV
Chroma subsampling : 4:2:0
Bit depth : 10 bits
Bits/(Pixel*Frame) : 0.041
Stream size : 633 MiB (79%)
Default : Yes
Forced : No
Color range : Limited
Color primaries : BT.709
Transfer characteristics : BT.709
Matrix coefficients : BT.709

Audio
ID : 2
Format : AAC LC SBR
Commercial name : HE-AAC
Format settings : Explicit
Codec ID : A_AAC-2
Duration : 1 h 50 min
Bit rate : 202 kb/s
Channel(s) : 6 channels
Channel layout : C L R Ls Rs LFE
Sampling rate : 48.0 kHz
Frame rate : 23.438 FPS (2048 SPF)
Compression mode : Lossy
Delay relative to video : 23 ms
Stream size : 160 MiB (20%)
Language : English
Default : Yes
Forced : No

Text #1
ID : 3
Format : UTF-8
Codec ID : S_TEXT/UTF8
Codec ID/Info : UTF-8 Plain Text
Duration : 1 h 40 min
Bit rate : 74 b/s
Frame rate : 0.281 FPS
Count of elements : 1694
Stream size : 55.0 KiB (0%)
Language : English (US)
Default : No
Forced : No

Text #2
ID : 4
Format : UTF-8
Codec ID : S_TEXT/UTF8
Codec ID/Info : UTF-8 Plain Text
Duration : 1 min 1 s
Bit rate : 33 b/s
Frame rate : 0.098 FPS
Count of elements : 6
Stream size : 257 Bytes (0%)
Title : Forced
Language : English (US)
Default : No
Forced : Yes

Text #3
ID : 5
Format : UTF-8
Codec ID : S_TEXT/UTF8
Codec ID/Info : UTF-8 Plain Text
Duration : 1 h 40 min
Bit rate : 80 b/s
Frame rate : 0.302 FPS
Count of elements : 1819
Stream size : 59.2 KiB (0%)
Title : SDH
Language : English (US)
Default : Yes
Forced : No

Text #4
ID : 6
Format : UTF-8
Codec ID : S_TEXT/UTF8
Codec ID/Info : UTF-8 Plain Text
Duration : 1 h 48 min
Bit rate : 110 b/s
Frame rate : 0.235 FPS
Count of elements : 1537
Stream size : 88.3 KiB (0%)
Language : Arabic (001)
Default : No
Forced : No

Text #5
ID : 7
Format : UTF-8
Codec ID : S_TEXT/UTF8
Codec ID/Info : UTF-8 Plain Text
Duration : 1 h 48 min
Bit rate : 64 b/s
Frame rate : 0.234 FPS
Count of elements : 1529
Stream size : 51.0 KiB (0%)
Language : Czech (CZ)
Default : No
Forced : No

Text #6
ID : 8
Format : UTF-8
Codec ID : S_TEXT/UTF8
Codec ID/Info : UTF-8 Plain Text
Duration : 1 h 48 min
Bit rate : 60 b/s
Frame rate : 0.227 FPS
Count of elements : 1485
Stream size : 48.4 KiB (0%)
Language : Danish (DK)
Default : No
Forced : No

Text #7
ID : 9
Format : UTF-8
Codec ID : S_TEXT/UTF8
Codec ID/Info : UTF-8 Plain Text
Duration : 1 h 48 min
Bit rate : 64 b/s
Frame rate : 0.233 FPS
Count of elements : 1519
Stream size : 51.6 KiB (0%)
Language : German (DE)
Default : No
Forced : No

Text #8
ID : 10
Format : UTF-8
Codec ID : S_TEXT/UTF8
Codec ID/Info : UTF-8 Plain Text
Duration : 1 h 48 min
Bit rate : 112 b/s
Frame rate : 0.235 FPS
Count of elements : 1534
Stream size : 89.5 KiB (0%)
Language : Greek (GR)
Default : No
Forced : No

Text #9
ID : 11
Format : UTF-8
Codec ID : S_TEXT/UTF8
Codec ID/Info : UTF-8 Plain Text
Duration : 1 h 48 min
Bit rate : 64 b/s
Frame rate : 0.234 FPS
Count of elements : 1525
Stream size : 51.3 KiB (0%)
Language : Spanish (ES)
Default : No
Forced : No

Text #10
ID : 12
Format : UTF-8
Codec ID : S_TEXT/UTF8
Codec ID/Info : UTF-8 Plain Text
Duration : 1 h 48 min
Bit rate : 58 b/s
Frame rate : 0.231 FPS
Count of elements : 1511
Stream size : 46.8 KiB (0%)
Language : Finnish (FI)
Default : No
Forced : No

Text #11
ID : 13
Format : UTF-8
Codec ID : S_TEXT/UTF8
Codec ID/Info : UTF-8 Plain Text
Duration : 1 h 48 min
Bit rate : 66 b/s
Frame rate : 0.227 FPS
Count of elements : 1483
Stream size : 53.1 KiB (0%)
Title : Canadian
Language : French (CA)
Default : No
Forced : No

Text #12
ID : 14
Format : UTF-8
Codec ID : S_TEXT/UTF8
Codec ID/Info : UTF-8 Plain Text
Duration : 1 h 48 min
Bit rate : 63 b/s
Frame rate : 0.232 FPS
Count of elements : 1514
Stream size : 50.3 KiB (0%)
Language : French (FR)
Default : No
Forced : No

Text #13
ID : 15
Format : UTF-8
Codec ID : S_TEXT/UTF8
Codec ID/Info : UTF-8 Plain Text
Duration : 1 h 48 min
Bit rate : 100 b/s
Frame rate : 0.235 FPS
Count of elements : 1536
Stream size : 80.0 KiB (0%)
Language : Hebrew (IL)
Default : No
Forced : No

Text #14
ID : 16
Format : UTF-8
Codec ID : S_TEXT/UTF8
Codec ID/Info : UTF-8 Plain Text
Duration : 1 h 48 min
Bit rate : 167 b/s
Frame rate : 0.235 FPS
Count of elements : 1536
Stream size : 133 KiB (0%)
Language : Hindi (IN)
Default : No
Forced : No

Text #15
ID : 17
Format : UTF-8
Codec ID : S_TEXT/UTF8
Codec ID/Info : UTF-8 Plain Text
Duration : 1 h 48 min
Bit rate : 65 b/s
Frame rate : 0.233 FPS
Count of elements : 1519
Stream size : 52.6 KiB (0%)
Language : Hungarian (HU)
Default : No
Forced : No

Text #16
ID : 18
Format : UTF-8
Codec ID : S_TEXT/UTF8
Codec ID/Info : UTF-8 Plain Text
Duration : 1 h 48 min
Bit rate : 61 b/s
Frame rate : 0.234 FPS
Count of elements : 1528
Stream size : 49.2 KiB (0%)
Language : Indonesian (ID)
Default : No
Forced : No

Text #17
ID : 19
Format : UTF-8
Codec ID : S_TEXT/UTF8
Codec ID/Info : UTF-8 Plain Text
Duration : 1 h 48 min
Bit rate : 65 b/s
Frame rate : 0.234 FPS
Count of elements : 1525
Stream size : 51.9 KiB (0%)
Language : Italian (IT)
Default : No
Forced : No

Text #18
ID : 20
Format : UTF-8
Codec ID : S_TEXT/UTF8
Codec ID/Info : UTF-8 Plain Text
Duration : 1 h 48 min
Bit rate : 73 b/s
Frame rate : 0.235 FPS
Count of elements : 1533
Stream size : 58.7 KiB (0%)
Language : Korean (KR)
Default : No
Forced : No

Text #19
ID : 21
Format : UTF-8
Codec ID : S_TEXT/UTF8
Codec ID/Info : UTF-8 Plain Text
Duration : 1 h 48 min
Bit rate : 66 b/s
Frame rate : 0.233 FPS
Count of elements : 1524
Stream size : 53.3 KiB (0%)
Language : Malay (MY)
Default : No
Forced : No

Text #20
ID : 22
Format : UTF-8
Codec ID : S_TEXT/UTF8
Codec ID/Info : UTF-8 Plain Text
Duration : 1 h 48 min
Bit rate : 60 b/s
Frame rate : 0.233 FPS
Count of elements : 1522
Stream size : 48.6 KiB (0%)
Language : Norwegian Bokmal (NO)
Default : No
Forced : No

Text #21
ID : 23
Format : UTF-8
Codec ID : S_TEXT/UTF8
Codec ID/Info : UTF-8 Plain Text
Duration : 1 h 48 min
Bit rate : 59 b/s
Frame rate : 0.231 FPS
Count of elements : 1509
Stream size : 47.2 KiB (0%)
Language : Dutch (NL)
Default : No
Forced : No

Text #22
ID : 24
Format : UTF-8
Codec ID : S_TEXT/UTF8
Codec ID/Info : UTF-8 Plain Text
Duration : 1 h 48 min
Bit rate : 61 b/s
Frame rate : 0.233 FPS
Count of elements : 1520
Stream size : 48.7 KiB (0%)
Language : Polish (PL)
Default : No
Forced : No

Text #23
ID : 25
Format : UTF-8
Codec ID : S_TEXT/UTF8
Codec ID/Info : UTF-8 Plain Text
Duration : 1 h 48 min
Bit rate : 60 b/s
Frame rate : 0.234 FPS
Count of elements : 1529
Stream size : 48.4 KiB (0%)
Title : Brazilian
Language : Portuguese (BR)
Default : No
Forced : No

Text #24
ID : 26
Format : UTF-8
Codec ID : S_TEXT/UTF8
Codec ID/Info : UTF-8 Plain Text
Duration : 1 h 48 min
Bit rate : 68 b/s
Frame rate : 0.233 FPS
Count of elements : 1523
Stream size : 54.4 KiB (0%)
Language : Portuguese (PT)
Default : No
Forced : No

Text #25
ID : 27
Format : UTF-8
Codec ID : S_TEXT/UTF8
Codec ID/Info : UTF-8 Plain Text
Duration : 1 h 48 min
Bit rate : 67 b/s
Frame rate : 0.233 FPS
Count of elements : 1522
Stream size : 54.1 KiB (0%)
Language : Romanian (RO)
Default : No
Forced : No

Text #26
ID : 28
Format : UTF-8
Codec ID : S_TEXT/UTF8
Codec ID/Info : UTF-8 Plain Text
Duration : 1 h 48 min
Bit rate : 64 b/s
Frame rate : 0.233 FPS
Count of elements : 1524
Stream size : 51.4 KiB (0%)
Language : Swedish (SE)
Default : No
Forced : No

Text #27
ID : 29
Format : UTF-8
Codec ID : S_TEXT/UTF8
Codec ID/Info : UTF-8 Plain Text
Duration : 1 h 48 min
Bit rate : 165 b/s
Frame rate : 0.235 FPS
Count of elements : 1536
Stream size : 132 KiB (0%)
Language : Thai (TH)
Default : No
Forced : No

Text #28
ID : 30
Format : UTF-8
Codec ID : S_TEXT/UTF8
Codec ID/Info : UTF-8 Plain Text
Duration : 1 h 48 min
Bit rate : 62 b/s
Frame rate : 0.234 FPS
Count of elements : 1528
Stream size : 49.8 KiB (0%)
Language : Turkish (TR)
Default : No
Forced : No

Text #29
ID : 31
Format : UTF-8
Codec ID : S_TEXT/UTF8
Codec ID/Info : UTF-8 Plain Text
Duration : 1 h 48 min
Bit rate : 58 b/s
Frame rate : 0.235 FPS
Count of elements : 1535
Stream size : 46.6 KiB (0%)
Title : Simplified
Language : Chinese (Simplified)
Default : No
Forced : No

Text #30
ID : 32
Format : UTF-8
Codec ID : S_TEXT/UTF8
Codec ID/Info : UTF-8 Plain Text
Duration : 1 h 48 min
Bit rate : 59 b/s
Frame rate : 0.235 FPS
Count of elements : 1535
Stream size : 47.1 KiB (0%)
Title : Traditional
Language : Chinese (Traditional)
Default : No
Forced : No

[collapse]
Download Link(s)

Download

Direct download files get automatically deleted after a month or so. Posted on : 07/04/2024

[collapse]

Magnet Link

Magnet

Space.Cadet.2024.1080p.WEB.H264-AccomplishedYak.TGx-6.14 GB

[collapse]

You may also like...

error: nah :p~