Sicario: Day of the Soldado (2018)

R | 2h 2min | Action, Crime, Drama | 29 June 2018 (USA)

The drug war on the U.S.-Mexico border has escalated as the cartels have begun trafficking terrorists across the US border. To fight the war, federal agent Matt Graver re-teams with the mercurial Alejandro.

Watch trailer

Media information

General
Format : Matroska
Format version : Version 4
File size : 1.94 GiB
Duration : 2 h 2 min
Overall bit rate : 2 272 kb/s
Movie name : Sicario.Day.of.the.Soldado.2018.1080p.10bit.BluRay.8CH.x265.HEVC

Video
ID : 1
Format : HEVC
Format/Info : High Efficiency Video Coding
Format profile : Main [email protected]@Main
Codec ID : V_MPEGH/ISO/HEVC
Duration : 2 h 2 min
Bit rate : 1 919 kb/s
Width : 1 920 pixels
Height : 800 pixels
Display aspect ratio : 2.40:1
Frame rate mode : Constant
Frame rate : 23.976 (24000/1001) FPS
Color space : YUV
Chroma subsampling : 4:2:0
Bit depth : 10 bits
Bits/(Pixel*Frame) : 0.052
Stream size : 1.64 GiB (84%)
Default : Yes
Forced : No

Audio
ID : 2
Format : AAC LC
Codec ID : A_AAC-2
Duration : 2 h 2 min
Bit rate : 353 kb/s
Channel(s) : 8 channels
Channel layout : C L R Ls Rs Lw Rw LFE
Sampling rate : 48.0 kHz
Frame rate : 46.875 FPS (1024 SPF)
Compression mode : Lossy
Delay relative to video : 9 ms
Stream size : 307 MiB (15%)
Language : English
Default : Yes
Forced : No

Text #1
ID : 3
Format : UTF-8
Codec ID : S_TEXT/UTF8
Codec ID/Info : UTF-8 Plain Text
Duration : 1 h 52 min
Bit rate : 30 b/s
Count of elements : 831
Stream size : 25.3 KiB (0%)
Language : English
Default : Yes
Forced : No

Text #2
ID : 4
Format : UTF-8
Codec ID : S_TEXT/UTF8
Codec ID/Info : UTF-8 Plain Text
Duration : 1 h 59 min
Bit rate : 49 b/s
Count of elements : 864
Stream size : 43.7 KiB (0%)
Language : Arabic
Default : No
Forced : No

Text #3
ID : 5
Format : UTF-8
Codec ID : S_TEXT/UTF8
Codec ID/Info : UTF-8 Plain Text
Duration : 2 h 2 min
Bit rate : 47 b/s
Count of elements : 745
Stream size : 42.3 KiB (0%)
Language : Bengali
Default : No
Forced : No

Text #4
ID : 6
Format : UTF-8
Codec ID : S_TEXT/UTF8
Codec ID/Info : UTF-8 Plain Text
Duration : 2 h 1 min
Bit rate : 26 b/s
Count of elements : 664
Stream size : 24.0 KiB (0%)
Language : Danish
Default : No
Forced : No

Text #5
ID : 7
Format : UTF-8
Codec ID : S_TEXT/UTF8
Codec ID/Info : UTF-8 Plain Text
Duration : 1 h 52 min
Bit rate : 26 b/s
Count of elements : 739
Stream size : 21.8 KiB (0%)
Language : Dutch
Default : No
Forced : No

Text #6
ID : 8
Format : UTF-8
Codec ID : S_TEXT/UTF8
Codec ID/Info : UTF-8 Plain Text
Duration : 1 h 54 min
Bit rate : 51 b/s
Count of elements : 920
Stream size : 43.5 KiB (0%)
Language : Persian
Default : No
Forced : No

Text #7
ID : 9
Format : UTF-8
Codec ID : S_TEXT/UTF8
Codec ID/Info : UTF-8 Plain Text
Duration : 1 h 53 min
Bit rate : 41 b/s
Count of elements : 807
Stream size : 34.3 KiB (0%)
Language : Hebrew
Default : No
Forced : No

Text #8
ID : 10
Format : UTF-8
Codec ID : S_TEXT/UTF8
Codec ID/Info : UTF-8 Plain Text
Duration : 1 h 54 min
Bit rate : 34 b/s
Count of elements : 919
Stream size : 29.1 KiB (0%)
Language : Indonesian
Default : No
Forced : No

Text #9
ID : 11
Format : UTF-8
Codec ID : S_TEXT/UTF8
Codec ID/Info : UTF-8 Plain Text
Duration : 1 h 55 min
Bit rate : 39 b/s
Count of elements : 989
Stream size : 33.0 KiB (0%)
Language : Italian
Default : No
Forced : No

Text #10
ID : 12
Format : UTF-8
Codec ID : S_TEXT/UTF8
Codec ID/Info : UTF-8 Plain Text
Duration : 1 h 53 min
Bit rate : 29 b/s
Count of elements : 891
Stream size : 24.2 KiB (0%)
Language : Malay
Default : No
Forced : No

Text #11
ID : 13
Format : UTF-8
Codec ID : S_TEXT/UTF8
Codec ID/Info : UTF-8 Plain Text
Duration : 1 h 56 min
Bit rate : 27 b/s
Count of elements : 654
Stream size : 23.6 KiB (0%)
Language : Swedish
Default : No
Forced : No

Text #12
ID : 14
Format : UTF-8
Codec ID : S_TEXT/UTF8
Codec ID/Info : UTF-8 Plain Text
Duration : 1 h 53 min
Bit rate : 33 b/s
Count of elements : 780
Stream size : 27.7 KiB (0%)
Language : Turkish
Default : No
Forced : No

Text #13
ID : 15
Format : UTF-8
Codec ID : S_TEXT/UTF8
Codec ID/Info : UTF-8 Plain Text
Duration : 1 h 53 min
Bit rate : 40 b/s
Count of elements : 853
Stream size : 33.2 KiB (0%)
Language : Vietnamese
Default : No
Forced : No

[collapse]
Download Link(s)

Download

[RE-UP]-Direct download files get automatically deleted after a month or so. Posted on : 03/14/2021

[collapse]
Magnet Link

Magnet

Sicario.Day.of.the.Soldado.2018.1080p.BluRay.REMUX.AVC.DTS-HD.MA.7.1-FGT-32.90 GB

[collapse]

Media information

General
Format : Matroska
Format version : Version 4
File size : 1.04 GiB
Duration : 2 h 2 min
Overall bit rate : 1 220 kb/s
Movie name : Sicario.Day.of.the.Soldado.2018.720p.10bit.BluRay.6CH.x265.HEVC

Video
ID : 1
Format : HEVC
Format/Info : High Efficiency Video Coding
Format profile : Main [email protected]@Main
Codec ID : V_MPEGH/ISO/HEVC
Duration : 2 h 2 min
Bit rate : 999 kb/s
Width : 1 280 pixels
Height : 536 pixels
Display aspect ratio : 2.40:1
Frame rate mode : Constant
Frame rate : 23.976 (24000/1001) FPS
Color space : YUV
Chroma subsampling : 4:2:0
Bit depth : 10 bits
Bits/(Pixel*Frame) : 0.061
Stream size : 875 MiB (82%)
Default : Yes
Forced : No

Audio
ID : 2
Format : AAC LC SBR
Commercial name : HE-AAC
Format settings : Explicit
Codec ID : A_AAC-2
Duration : 2 h 2 min
Bit rate : 219 kb/s
Channel(s) : 6 channels
Channel layout : C L R Ls Rs LFE
Sampling rate : 48.0 kHz
Frame rate : 23.438 FPS (2048 SPF)
Compression mode : Lossy
Delay relative to video : 31 ms
Stream size : 192 MiB (18%)
Language : English
Default : Yes
Forced : No

Text #1
ID : 3
Format : UTF-8
Codec ID : S_TEXT/UTF8
Codec ID/Info : UTF-8 Plain Text
Duration : 1 h 52 min
Bit rate : 29 b/s
Count of elements : 912
Stream size : 24.3 KiB (0%)
Language : English
Default : Yes
Forced : No

Text #2
ID : 4
Format : UTF-8
Codec ID : S_TEXT/UTF8
Codec ID/Info : UTF-8 Plain Text
Duration : 1 h 27 min
Bit rate : 6 b/s
Count of elements : 172
Stream size : 4.44 KiB (0%)
Language : English
Default : No
Forced : No

[collapse]
Download Link(s)

Download

[RE-UP]-Direct download files get automatically deleted after a month or so. Posted on : 03/14/2021

[collapse]
Magnet Link

Magnet

Sicario.Day.of.the.Soldado.2018.1080p.BluRay.REMUX.AVC.DTS-HD.MA.7.1-FGT-32.90 GB

[collapse]

You may also like...

error: nah :p~