Sergio (2020)

R | 1h 58min | Drama | 17 April 2020 (USA)

A sweeping drama set in the chaotic aftermath of the US invasion of Iraq, where the life of top UN diplomat Sergio Vieira de Mello hangs in the balance during the most treacherous mission of his career.

Watch trailer

Media information

General
Format : Matroska
Format version : Version 4
File size : 1.19 GiB
Duration : 1 h 58 min
Overall bit rate : 1 437 kb/s
Movie name : Sergio.2020.1080p.WEBRip.2CH.x265.HEVC

Video
ID : 1
Format : HEVC
Format/Info : High Efficiency Video Coding
Format profile : [email protected]@Main
Codec ID : V_MPEGH/ISO/HEVC
Duration : 1 h 58 min
Bit rate : 1 351 kb/s
Width : 1 920 pixels
Height : 960 pixels
Display aspect ratio : 2.000
Frame rate mode : Constant
Frame rate : 23.976 (24000/1001) FPS
Color space : YUV
Chroma subsampling : 4:2:0
Bit depth : 8 bits
Bits/(Pixel*Frame) : 0.031
Stream size : 1.12 GiB (94%)
Default : Yes
Forced : No
Color range : Limited
Color primaries : BT.709
Transfer characteristics : BT.709
Matrix coefficients : BT.709

Audio
ID : 2
Format : AAC LC
Codec ID : A_AAC-2
Duration : 1 h 58 min
Bit rate : 80.0 kb/s
Channel(s) : 2 channels
Channel layout : L R
Sampling rate : 48.0 kHz
Frame rate : 46.875 FPS (1024 SPF)
Compression mode : Lossy
Delay relative to video : -21 ms
Stream size : 67.9 MiB (6%)
Title : English
Language : English
Default : Yes
Forced : No

Text #1
ID : 3
Format : ASS
Codec ID : S_TEXT/ASS
Duration : 1 h 53 min
Bit rate : 97 b/s
Count of elements : 1651
Compression mode : Lossless
Stream size : 81.2 KiB (0%)
Title : English
Language : English
Default : Yes
Forced : Yes

Text #2
ID : 4
Format : ASS
Codec ID : S_TEXT/ASS
Duration : 1 h 23 min
Bit rate : 12 b/s
Count of elements : 175
Compression mode : Lossless
Stream size : 7.39 KiB (0%)
Title : English (FORCED)
Language : English
Default : No
Forced : No

Text #3
ID : 5
Format : ASS
Codec ID : S_TEXT/ASS
Duration : 1 h 57 min
Bit rate : 107 b/s
Count of elements : 1365
Compression mode : Lossless
Stream size : 92.4 KiB (0%)
Title : Arabic
Language : Arabic
Default : No
Forced : No

Text #4
ID : 6
Format : ASS
Codec ID : S_TEXT/ASS
Duration : 1 h 57 min
Bit rate : 75 b/s
Count of elements : 1365
Compression mode : Lossless
Stream size : 65.0 KiB (0%)
Title : Chinese Simplified
Language : Chinese
Default : No
Forced : No

Text #5
ID : 7
Format : ASS
Codec ID : S_TEXT/ASS
Duration : 1 h 57 min
Bit rate : 77 b/s
Count of elements : 1341
Compression mode : Lossless
Stream size : 66.5 KiB (0%)
Title : Chinese Traditional
Language : Chinese
Default : No
Forced : No

Text #6
ID : 8
Format : ASS
Codec ID : S_TEXT/ASS
Duration : 1 h 57 min
Bit rate : 72 b/s
Count of elements : 1316
Compression mode : Lossless
Stream size : 62.3 KiB (0%)
Title : Czech
Language : Czech
Default : No
Forced : No

Text #7
ID : 9
Format : ASS
Codec ID : S_TEXT/ASS
Duration : 1 h 57 min
Bit rate : 66 b/s
Count of elements : 1141
Compression mode : Lossless
Stream size : 57.5 KiB (0%)
Title : Danish
Language : Danish
Default : No
Forced : No

Text #8
ID : 10
Format : ASS
Codec ID : S_TEXT/ASS
Duration : 1 h 57 min
Bit rate : 61 b/s
Count of elements : 1023
Compression mode : Lossless
Stream size : 53.3 KiB (0%)
Title : Dutch
Language : Dutch
Default : No
Forced : No

Text #9
ID : 11
Format : ASS
Codec ID : S_TEXT/ASS
Duration : 1 h 57 min
Bit rate : 70 b/s
Count of elements : 1112
Compression mode : Lossless
Stream size : 60.5 KiB (0%)
Title : Finnish
Language : Finnish
Default : No
Forced : No

Text #10
ID : 12
Format : ASS
Codec ID : S_TEXT/ASS
Duration : 1 h 57 min
Bit rate : 71 b/s
Count of elements : 1237
Compression mode : Lossless
Stream size : 61.6 KiB (0%)
Title : French
Language : French
Default : No
Forced : No

Text #11
ID : 13
Format : ASS
Codec ID : S_TEXT/ASS
Duration : 1 h 57 min
Bit rate : 77 b/s
Count of elements : 1303
Compression mode : Lossless
Stream size : 67.0 KiB (0%)
Title : German
Language : German
Default : No
Forced : No

Text #12
ID : 14
Format : ASS
Codec ID : S_TEXT/ASS
Duration : 1 h 57 min
Bit rate : 104 b/s
Count of elements : 1319
Compression mode : Lossless
Stream size : 90.1 KiB (0%)
Title : Greek
Language : Greek
Default : No
Forced : No

Text #13
ID : 15
Format : ASS
Codec ID : S_TEXT/ASS
Duration : 1 h 57 min
Bit rate : 100 b/s
Count of elements : 1337
Compression mode : Lossless
Stream size : 86.4 KiB (0%)
Title : Hebrew
Default : No
Forced : No

Text #14
ID : 16
Format : ASS
Codec ID : S_TEXT/ASS
Duration : 1 h 57 min
Bit rate : 151 b/s
Count of elements : 1351
Compression mode : Lossless
Stream size : 131 KiB (0%)
Title : Hindi
Language : Hindi
Default : No
Forced : No

Text #15
ID : 17
Format : ASS
Codec ID : S_TEXT/ASS
Duration : 1 h 57 min
Bit rate : 73 b/s
Count of elements : 1285
Compression mode : Lossless
Stream size : 63.8 KiB (0%)
Title : Hungarian
Language : Hungarian
Default : No
Forced : No

Text #16
ID : 18
Format : ASS
Codec ID : S_TEXT/ASS
Duration : 1 h 57 min
Bit rate : 75 b/s
Count of elements : 1334
Compression mode : Lossless
Stream size : 65.1 KiB (0%)
Title : Indonesian
Default : No
Forced : No

Text #17
ID : 19
Format : ASS
Codec ID : S_TEXT/ASS
Duration : 1 h 57 min
Bit rate : 74 b/s
Count of elements : 1261
Compression mode : Lossless
Stream size : 64.6 KiB (0%)
Title : Italian
Language : Italian
Default : No
Forced : No

Text #18
ID : 20
Format : ASS
Codec ID : S_TEXT/ASS
Duration : 1 h 57 min
Bit rate : 73 b/s
Count of elements : 1231
Compression mode : Lossless
Stream size : 63.0 KiB (0%)
Title : Japanese
Language : Japanese
Default : No
Forced : No

Text #19
ID : 21
Format : ASS
Codec ID : S_TEXT/ASS
Duration : 1 h 57 min
Bit rate : 87 b/s
Count of elements : 1369
Compression mode : Lossless
Stream size : 75.8 KiB (0%)
Title : Korean
Language : Korean
Default : No
Forced : No

Text #20
ID : 22
Format : ASS
Codec ID : S_TEXT/ASS
Duration : 1 h 57 min
Bit rate : 72 b/s
Count of elements : 1295
Compression mode : Lossless
Stream size : 62.5 KiB (0%)
Title : Norwegian Bokmal
Language : Norwegian Bokmal
Default : No
Forced : No

Text #21
ID : 23
Format : ASS
Codec ID : S_TEXT/ASS
Duration : 1 h 57 min
Bit rate : 72 b/s
Count of elements : 1320
Compression mode : Lossless
Stream size : 62.3 KiB (0%)
Title : Polish
Language : Polish
Default : No
Forced : No

Text #22
ID : 24
Format : ASS
Codec ID : S_TEXT/ASS
Duration : 1 h 57 min
Bit rate : 69 b/s
Count of elements : 1176
Compression mode : Lossless
Stream size : 60.2 KiB (0%)
Title : Portuguese
Language : Portuguese
Default : No
Forced : No

Text #23
ID : 25
Format : ASS
Codec ID : S_TEXT/ASS
Duration : 1 h 57 min
Bit rate : 68 b/s
Count of elements : 1253
Compression mode : Lossless
Stream size : 59.0 KiB (0%)
Title : Brazilian Portuguese
Language : Portuguese
Default : No
Forced : No

Text #24
ID : 26
Format : ASS
Codec ID : S_TEXT/ASS
Duration : 1 h 57 min
Bit rate : 82 b/s
Count of elements : 1334
Compression mode : Lossless
Stream size : 71.5 KiB (0%)
Title : Romanian
Language : Romanian
Default : No
Forced : No

Text #25
ID : 27
Format : ASS
Codec ID : S_TEXT/ASS
Duration : 1 h 57 min
Bit rate : 107 b/s
Count of elements : 1344
Compression mode : Lossless
Stream size : 92.7 KiB (0%)
Title : Russian
Language : Russian
Default : No
Forced : No

Text #26
ID : 28
Format : ASS
Codec ID : S_TEXT/ASS
Duration : 1 h 57 min
Bit rate : 70 b/s
Count of elements : 1195
Compression mode : Lossless
Stream size : 60.8 KiB (0%)
Title : Spanish
Language : Spanish
Default : No
Forced : No

Text #27
ID : 29
Format : ASS
Codec ID : S_TEXT/ASS
Duration : 1 h 57 min
Bit rate : 74 b/s
Count of elements : 1278
Compression mode : Lossless
Stream size : 63.9 KiB (0%)
Title : European Spanish
Language : Spanish
Default : No
Forced : No

Text #28
ID : 30
Format : ASS
Codec ID : S_TEXT/ASS
Duration : 1 h 57 min
Bit rate : 70 b/s
Count of elements : 1219
Compression mode : Lossless
Stream size : 61.0 KiB (0%)
Title : Swedish
Language : Swedish
Default : No
Forced : No

Text #29
ID : 31
Format : ASS
Codec ID : S_TEXT/ASS
Duration : 1 h 57 min
Bit rate : 144 b/s
Count of elements : 1346
Compression mode : Lossless
Stream size : 124 KiB (0%)
Title : Thai
Language : Thai
Default : No
Forced : No

Text #30
ID : 32
Format : ASS
Codec ID : S_TEXT/ASS
Duration : 1 h 57 min
Bit rate : 78 b/s
Count of elements : 1344
Compression mode : Lossless
Stream size : 67.6 KiB (0%)
Title : Turkish
Language : Turkish
Default : No
Forced : No

Text #31
ID : 33
Format : ASS
Codec ID : S_TEXT/ASS
Duration : 1 h 57 min
Bit rate : 91 b/s
Count of elements : 1328
Compression mode : Lossless
Stream size : 78.4 KiB (0%)
Title : Vietnamese
Language : Vietnamese
Default : No
Forced : No

[collapse]
Download Link(s)

Download

Direct download files get automatically deleted after a month or so. Posted on : 04/23/2020

[collapse]
Magnet Link

Magnet

Sergio.2020.1080p.NF.WEBRip.DDP5.1.Atmos.x264-CM-4.60 GB

[collapse]

Media information

General
Format : Matroska
Format version : Version 4
File size : 753 MiB
Duration : 1 h 58 min
Overall bit rate : 887 kb/s
Movie name : Sergio.2020.720p.WEBRip.2CH.x265.HEVC

Video
ID : 1
Format : HEVC
Format/Info : High Efficiency Video Coding
Format profile : [email protected]@Main
Codec ID : V_MPEGH/ISO/HEVC
Duration : 1 h 58 min
Bit rate : 801 kb/s
Width : 1 280 pixels
Height : 720 pixels
Display aspect ratio : 2.000
Frame rate mode : Constant
Frame rate : 23.976 (24000/1001) FPS
Color space : YUV
Chroma subsampling : 4:2:0
Bit depth : 8 bits
Bits/(Pixel*Frame) : 0.036
Stream size : 680 MiB (90%)
Default : Yes
Forced : No
Color range : Limited
Color primaries : BT.709
Transfer characteristics : BT.709
Matrix coefficients : BT.709

Audio
ID : 2
Format : AAC LC
Codec ID : A_AAC-2
Duration : 1 h 58 min
Bit rate : 80.0 kb/s
Channel(s) : 2 channels
Channel layout : L R
Sampling rate : 48.0 kHz
Frame rate : 46.875 FPS (1024 SPF)
Compression mode : Lossy
Delay relative to video : -21 ms
Stream size : 67.9 MiB (9%)
Title : English
Language : English
Default : Yes
Forced : No

Text #1
ID : 3
Format : ASS
Codec ID : S_TEXT/ASS
Duration : 1 h 53 min
Bit rate : 97 b/s
Count of elements : 1651
Compression mode : Lossless
Stream size : 81.2 KiB (0%)
Title : English
Language : English
Default : Yes
Forced : Yes

Text #2
ID : 4
Format : ASS
Codec ID : S_TEXT/ASS
Duration : 1 h 23 min
Bit rate : 12 b/s
Count of elements : 175
Compression mode : Lossless
Stream size : 7.39 KiB (0%)
Title : English (FORCED)
Language : English
Default : No
Forced : No

Text #3
ID : 5
Format : ASS
Codec ID : S_TEXT/ASS
Duration : 1 h 57 min
Bit rate : 107 b/s
Count of elements : 1365
Compression mode : Lossless
Stream size : 92.4 KiB (0%)
Title : Arabic
Language : Arabic
Default : No
Forced : No

Text #4
ID : 6
Format : ASS
Codec ID : S_TEXT/ASS
Duration : 1 h 57 min
Bit rate : 75 b/s
Count of elements : 1365
Compression mode : Lossless
Stream size : 65.0 KiB (0%)
Title : Chinese Simplified
Language : Chinese
Default : No
Forced : No

Text #5
ID : 7
Format : ASS
Codec ID : S_TEXT/ASS
Duration : 1 h 57 min
Bit rate : 77 b/s
Count of elements : 1341
Compression mode : Lossless
Stream size : 66.5 KiB (0%)
Title : Chinese Traditional
Language : Chinese
Default : No
Forced : No

Text #6
ID : 8
Format : ASS
Codec ID : S_TEXT/ASS
Duration : 1 h 57 min
Bit rate : 72 b/s
Count of elements : 1316
Compression mode : Lossless
Stream size : 62.3 KiB (0%)
Title : Czech
Language : Czech
Default : No
Forced : No

Text #7
ID : 9
Format : ASS
Codec ID : S_TEXT/ASS
Duration : 1 h 57 min
Bit rate : 66 b/s
Count of elements : 1141
Compression mode : Lossless
Stream size : 57.5 KiB (0%)
Title : Danish
Language : Danish
Default : No
Forced : No

Text #8
ID : 10
Format : ASS
Codec ID : S_TEXT/ASS
Duration : 1 h 57 min
Bit rate : 61 b/s
Count of elements : 1023
Compression mode : Lossless
Stream size : 53.3 KiB (0%)
Title : Dutch
Language : Dutch
Default : No
Forced : No

Text #9
ID : 11
Format : ASS
Codec ID : S_TEXT/ASS
Duration : 1 h 57 min
Bit rate : 70 b/s
Count of elements : 1112
Compression mode : Lossless
Stream size : 60.5 KiB (0%)
Title : Finnish
Language : Finnish
Default : No
Forced : No

Text #10
ID : 12
Format : ASS
Codec ID : S_TEXT/ASS
Duration : 1 h 57 min
Bit rate : 71 b/s
Count of elements : 1237
Compression mode : Lossless
Stream size : 61.6 KiB (0%)
Title : French
Language : French
Default : No
Forced : No

Text #11
ID : 13
Format : ASS
Codec ID : S_TEXT/ASS
Duration : 1 h 57 min
Bit rate : 77 b/s
Count of elements : 1303
Compression mode : Lossless
Stream size : 67.0 KiB (0%)
Title : German
Language : German
Default : No
Forced : No

Text #12
ID : 14
Format : ASS
Codec ID : S_TEXT/ASS
Duration : 1 h 57 min
Bit rate : 104 b/s
Count of elements : 1319
Compression mode : Lossless
Stream size : 90.1 KiB (0%)
Title : Greek
Language : Greek
Default : No
Forced : No

Text #13
ID : 15
Format : ASS
Codec ID : S_TEXT/ASS
Duration : 1 h 57 min
Bit rate : 100 b/s
Count of elements : 1337
Compression mode : Lossless
Stream size : 86.4 KiB (0%)
Title : Hebrew
Default : No
Forced : No

Text #14
ID : 16
Format : ASS
Codec ID : S_TEXT/ASS
Duration : 1 h 57 min
Bit rate : 151 b/s
Count of elements : 1351
Compression mode : Lossless
Stream size : 131 KiB (0%)
Title : Hindi
Language : Hindi
Default : No
Forced : No

Text #15
ID : 17
Format : ASS
Codec ID : S_TEXT/ASS
Duration : 1 h 57 min
Bit rate : 73 b/s
Count of elements : 1285
Compression mode : Lossless
Stream size : 63.8 KiB (0%)
Title : Hungarian
Language : Hungarian
Default : No
Forced : No

Text #16
ID : 18
Format : ASS
Codec ID : S_TEXT/ASS
Duration : 1 h 57 min
Bit rate : 75 b/s
Count of elements : 1334
Compression mode : Lossless
Stream size : 65.1 KiB (0%)
Title : Indonesian
Default : No
Forced : No

Text #17
ID : 19
Format : ASS
Codec ID : S_TEXT/ASS
Duration : 1 h 57 min
Bit rate : 74 b/s
Count of elements : 1261
Compression mode : Lossless
Stream size : 64.6 KiB (0%)
Title : Italian
Language : Italian
Default : No
Forced : No

Text #18
ID : 20
Format : ASS
Codec ID : S_TEXT/ASS
Duration : 1 h 57 min
Bit rate : 73 b/s
Count of elements : 1231
Compression mode : Lossless
Stream size : 63.0 KiB (0%)
Title : Japanese
Language : Japanese
Default : No
Forced : No

Text #19
ID : 21
Format : ASS
Codec ID : S_TEXT/ASS
Duration : 1 h 57 min
Bit rate : 87 b/s
Count of elements : 1369
Compression mode : Lossless
Stream size : 75.8 KiB (0%)
Title : Korean
Language : Korean
Default : No
Forced : No

Text #20
ID : 22
Format : ASS
Codec ID : S_TEXT/ASS
Duration : 1 h 57 min
Bit rate : 72 b/s
Count of elements : 1295
Compression mode : Lossless
Stream size : 62.5 KiB (0%)
Title : Norwegian Bokmal
Language : Norwegian Bokmal
Default : No
Forced : No

Text #21
ID : 23
Format : ASS
Codec ID : S_TEXT/ASS
Duration : 1 h 57 min
Bit rate : 72 b/s
Count of elements : 1320
Compression mode : Lossless
Stream size : 62.3 KiB (0%)
Title : Polish
Language : Polish
Default : No
Forced : No

Text #22
ID : 24
Format : ASS
Codec ID : S_TEXT/ASS
Duration : 1 h 57 min
Bit rate : 69 b/s
Count of elements : 1176
Compression mode : Lossless
Stream size : 60.2 KiB (0%)
Title : Portuguese
Language : Portuguese
Default : No
Forced : No

Text #23
ID : 25
Format : ASS
Codec ID : S_TEXT/ASS
Duration : 1 h 57 min
Bit rate : 68 b/s
Count of elements : 1253
Compression mode : Lossless
Stream size : 59.0 KiB (0%)
Title : Brazilian Portuguese
Language : Portuguese
Default : No
Forced : No

Text #24
ID : 26
Format : ASS
Codec ID : S_TEXT/ASS
Duration : 1 h 57 min
Bit rate : 82 b/s
Count of elements : 1334
Compression mode : Lossless
Stream size : 71.5 KiB (0%)
Title : Romanian
Language : Romanian
Default : No
Forced : No

Text #25
ID : 27
Format : ASS
Codec ID : S_TEXT/ASS
Duration : 1 h 57 min
Bit rate : 107 b/s
Count of elements : 1344
Compression mode : Lossless
Stream size : 92.7 KiB (0%)
Title : Russian
Language : Russian
Default : No
Forced : No

Text #26
ID : 28
Format : ASS
Codec ID : S_TEXT/ASS
Duration : 1 h 57 min
Bit rate : 70 b/s
Count of elements : 1195
Compression mode : Lossless
Stream size : 60.8 KiB (0%)
Title : Spanish
Language : Spanish
Default : No
Forced : No

Text #27
ID : 29
Format : ASS
Codec ID : S_TEXT/ASS
Duration : 1 h 57 min
Bit rate : 74 b/s
Count of elements : 1278
Compression mode : Lossless
Stream size : 63.9 KiB (0%)
Title : European Spanish
Language : Spanish
Default : No
Forced : No

Text #28
ID : 30
Format : ASS
Codec ID : S_TEXT/ASS
Duration : 1 h 57 min
Bit rate : 70 b/s
Count of elements : 1219
Compression mode : Lossless
Stream size : 61.0 KiB (0%)
Title : Swedish
Language : Swedish
Default : No
Forced : No

Text #29
ID : 31
Format : ASS
Codec ID : S_TEXT/ASS
Duration : 1 h 57 min
Bit rate : 144 b/s
Count of elements : 1346
Compression mode : Lossless
Stream size : 124 KiB (0%)
Title : Thai
Language : Thai
Default : No
Forced : No

Text #30
ID : 32
Format : ASS
Codec ID : S_TEXT/ASS
Duration : 1 h 57 min
Bit rate : 78 b/s
Count of elements : 1344
Compression mode : Lossless
Stream size : 67.6 KiB (0%)
Title : Turkish
Language : Turkish
Default : No
Forced : No

Text #31
ID : 33
Format : ASS
Codec ID : S_TEXT/ASS
Duration : 1 h 57 min
Bit rate : 91 b/s
Count of elements : 1328
Compression mode : Lossless
Stream size : 78.4 KiB (0%)
Title : Vietnamese
Language : Vietnamese
Default : No
Forced : No

[collapse]
Download Link(s)

Download

Direct download files get automatically deleted after a month or so. Posted on : 04/22/2020

[collapse]
Magnet Link

Magnet

Sergio.2020.1080p.NF.WEBRip.DDP5.1.Atmos.x264-CM-4.60 GB

[collapse]

You may also like...

error: nah :p~