Senna (2010)

PG-13 | 1h 46min | Documentary, Biography, Sport | 25 May 2011 (France)

A documentary on Brazilian Formula One racing driver Ayrton Senna, who won the F1 world championship three times before his death at age 34.

Watch trailer

Media information

General
Format : Matroska
Format version : Version 4
File size : 1.84 GiB
Duration : 1 h 45 min
Overall bit rate : 2 490 kb/s
Movie name : Senna.2010.1080p.10bit.BluRay.6CH.x265.HEVC

Video
ID : 1
Format : HEVC
Format/Info : High Efficiency Video Coding
Format profile : Main 10@L4@Main
Codec ID : V_MPEGH/ISO/HEVC
Duration : 1 h 45 min
Bit rate : 2 000 kb/s
Width : 1 920 pixels
Height : 1 080 pixels
Display aspect ratio : 16:9
Frame rate mode : Constant
Frame rate : 23.976 (24000/1001) FPS
Color space : YUV
Chroma subsampling : 4:2:0
Bit depth : 10 bits
Bits/(Pixel*Frame) : 0.040
Stream size : 1.48 GiB (80%)
Default : Yes
Forced : No
Color range : Limited
Color primaries : BT.709
Transfer characteristics : BT.709
Matrix coefficients : BT.709

Audio #1
ID : 2
Format : AAC LC
Codec ID : A_AAC-2
Duration : 1 h 45 min
Bit rate : 192 kb/s
Channel(s) : 6 channels
Channel layout : C L R Ls Rs LFE
Sampling rate : 48.0 kHz
Frame rate : 46.875 FPS (1024 SPF)
Compression mode : Lossy
Delay relative to video : -1 ms
Stream size : 145 MiB (8%)
Title : Surround
Language : Portuguese
Default : Yes
Forced : No

Audio #2
ID : 3
Format : AAC LC
Codec ID : A_AAC-2
Duration : 1 h 45 min
Bit rate : 64.4 kb/s
Channel(s) : 2 channels
Channel layout : L R
Sampling rate : 48.0 kHz
Frame rate : 46.875 FPS (1024 SPF)
Compression mode : Lossy
Delay relative to video : -1 ms
Stream size : 48.7 MiB (3%)
Title : Stereo
Language : English
Default : No
Forced : No

Text #1
ID : 4
Format : PGS
Muxing mode : zlib
Codec ID : S_HDMV/PGS
Duration : 1 h 40 min
Bit rate : 41.1 kb/s
Count of elements : 2204
Stream size : 29.6 MiB (2%)
Language : English
Default : Yes
Forced : Yes

Text #2
ID : 5
Format : PGS
Muxing mode : zlib
Codec ID : S_HDMV/PGS
Duration : 1 h 45 min
Bit rate : 96.0 kb/s
Count of elements : 4108
Stream size : 72.4 MiB (4%)
Language : English
Default : No
Forced : No

Text #3
ID : 6
Format : PGS
Muxing mode : zlib
Codec ID : S_HDMV/PGS
Duration : 1 h 39 min
Bit rate : 18.7 kb/s
Count of elements : 1150
Stream size : 13.2 MiB (1%)
Language : English
Default : No
Forced : No

Text #4
ID : 7
Format : PGS
Muxing mode : zlib
Codec ID : S_HDMV/PGS
Duration : 1 h 41 min
Bit rate : 47.5 kb/s
Count of elements : 2584
Stream size : 34.6 MiB (2%)
Language : English
Default : No
Forced : No

Text #5
ID : 8
Format : PGS
Muxing mode : zlib
Codec ID : S_HDMV/PGS
Duration : 1 h 44 min
Bit rate : 46.8 kb/s
Count of elements : 2484
Stream size : 35.0 MiB (2%)
Language : German
Default : No
Forced : No

Text #6
ID : 9
Format : PGS
Muxing mode : zlib
Codec ID : S_HDMV/PGS
Duration : 1 h 44 min
Bit rate : 44.0 kb/s
Count of elements : 2488
Stream size : 32.9 MiB (2%)
Language : Spanish
Default : No
Forced : No

Text #7
ID : 10
Format : PGS
Muxing mode : zlib
Codec ID : S_HDMV/PGS
Duration : 1 h 44 min
Bit rate : 42.6 kb/s
Count of elements : 2490
Stream size : 31.9 MiB (2%)
Language : Spanish
Default : No
Forced : No

Text #8
ID : 11
Format : PGS
Muxing mode : zlib
Codec ID : S_HDMV/PGS
Duration : 1 h 44 min
Bit rate : 36.2 kb/s
Count of elements : 2489
Stream size : 27.1 MiB (1%)
Language : Czech
Default : No
Forced : No

Text #9
ID : 12
Format : PGS
Muxing mode : zlib
Codec ID : S_HDMV/PGS
Duration : 1 h 44 min
Bit rate : 41.2 kb/s
Count of elements : 2475
Stream size : 30.9 MiB (2%)
Language : Dutch
Default : No
Forced : No

Text #10
ID : 13
Format : PGS
Muxing mode : zlib
Codec ID : S_HDMV/PGS
Duration : 1 h 44 min
Bit rate : 47.0 kb/s
Count of elements : 2534
Stream size : 35.2 MiB (2%)
Language : Greek
Default : No
Forced : No

Text #11
ID : 14
Format : PGS
Muxing mode : zlib
Codec ID : S_HDMV/PGS
Duration : 1 h 44 min
Bit rate : 43.3 kb/s
Count of elements : 2510
Stream size : 32.4 MiB (2%)
Language : Hungarian
Default : No
Forced : No

Text #12
ID : 15
Format : PGS
Muxing mode : zlib
Codec ID : S_HDMV/PGS
Duration : 1 h 44 min
Bit rate : 46.5 kb/s
Count of elements : 2489
Stream size : 34.8 MiB (2%)
Language : Portuguese
Default : No
Forced : No

Text #13
ID : 16
Format : PGS
Muxing mode : zlib
Codec ID : S_HDMV/PGS
Duration : 1 h 44 min
Bit rate : 28.9 kb/s
Count of elements : 2548
Stream size : 21.7 MiB (1%)
Language : Korean
Default : No
Forced : No

Text #14
ID : 17
Format : PGS
Muxing mode : zlib
Codec ID : S_HDMV/PGS
Duration : 1 h 45 min
Bit rate : 88.8 kb/s
Count of elements : 4074
Stream size : 67.1 MiB (4%)
Language : German
Default : No
Forced : No

Text #15
ID : 18
Format : PGS
Muxing mode : zlib
Codec ID : S_HDMV/PGS
Duration : 1 h 45 min
Bit rate : 78.6 kb/s
Count of elements : 4074
Stream size : 59.3 MiB (3%)
Language : Spanish
Default : No
Forced : No

Text #16
ID : 19
Format : PGS
Muxing mode : zlib
Codec ID : S_HDMV/PGS
Duration : 1 h 44 min
Bit rate : 4 490 b/s
Count of elements : 272
Stream size : 3.34 MiB (0%)
Language : German
Default : No
Forced : No

[collapse]
Download Link(s)

Part01 Part02

Direct download files get automatically deleted after a month or so. Posted on : 05/7/2020

[collapse]
Magnet Link

Magnet

Senna (2010) + Extras (1080p BluRay x265 HEVC 10bit AAC 5.1-5.0 GB

[collapse]

Media information

General
Format : Matroska
Format version : Version 4
File size : 1.11 GiB
Duration : 1 h 45 min
Overall bit rate : 1 506 kb/s
Movie name : Senna.2010.720p.10bit.BluRay.6CH.x265.HEVC

Video
ID : 1
Format : HEVC
Format/Info : High Efficiency Video Coding
Format profile : Main [email protected]@Main
Codec ID : V_MPEGH/ISO/HEVC
Duration : 1 h 45 min
Bit rate : 1 001 kb/s
Width : 1 280 pixels
Height : 720 pixels
Display aspect ratio : 16:9
Frame rate mode : Constant
Frame rate : 23.976 (24000/1001) FPS
Color space : YUV
Chroma subsampling : 4:2:0
Bit depth : 10 bits
Bits/(Pixel*Frame) : 0.045
Stream size : 757 MiB (66%)
Default : Yes
Forced : No
Color range : Limited
Color primaries : BT.709
Transfer characteristics : BT.709
Matrix coefficients : BT.709

Audio #1
ID : 2
Format : AAC LC
Codec ID : A_AAC-2
Duration : 1 h 45 min
Bit rate : 192 kb/s
Channel(s) : 6 channels
Channel layout : C L R Ls Rs LFE
Sampling rate : 48.0 kHz
Frame rate : 46.875 FPS (1024 SPF)
Compression mode : Lossy
Delay relative to video : -1 ms
Stream size : 145 MiB (13%)
Title : Surround
Language : Portuguese
Default : Yes
Forced : No

Audio #2
ID : 3
Format : AAC LC
Codec ID : A_AAC-2
Duration : 1 h 45 min
Bit rate : 80.3 kb/s
Channel(s) : 2 channels
Channel layout : L R
Sampling rate : 48.0 kHz
Frame rate : 46.875 FPS (1024 SPF)
Compression mode : Lossy
Delay relative to video : -1 ms
Stream size : 60.7 MiB (5%)
Title : Stereo
Language : English
Default : No
Forced : No

Text #1
ID : 4
Format : PGS
Muxing mode : zlib
Codec ID : S_HDMV/PGS
Duration : 1 h 40 min
Bit rate : 41.1 kb/s
Count of elements : 2204
Stream size : 29.6 MiB (3%)
Language : English
Default : Yes
Forced : Yes

Text #2
ID : 5
Format : PGS
Muxing mode : zlib
Codec ID : S_HDMV/PGS
Duration : 1 h 45 min
Bit rate : 96.0 kb/s
Count of elements : 4108
Stream size : 72.4 MiB (6%)
Language : English
Default : No
Forced : No

Text #3
ID : 6
Format : PGS
Muxing mode : zlib
Codec ID : S_HDMV/PGS
Duration : 1 h 39 min
Bit rate : 18.7 kb/s
Count of elements : 1150
Stream size : 13.2 MiB (1%)
Language : English
Default : No
Forced : No

Text #4
ID : 7
Format : PGS
Muxing mode : zlib
Codec ID : S_HDMV/PGS
Duration : 1 h 41 min
Bit rate : 47.5 kb/s
Count of elements : 2584
Stream size : 34.6 MiB (3%)
Language : English
Default : No
Forced : No

Text #5
ID : 8
Format : PGS
Muxing mode : zlib
Codec ID : S_HDMV/PGS
Duration : 1 h 44 min
Bit rate : 46.8 kb/s
Count of elements : 2484
Stream size : 35.0 MiB (3%)
Language : German
Default : No
Forced : No

Text #6
ID : 9
Format : PGS
Muxing mode : zlib
Codec ID : S_HDMV/PGS
Duration : 1 h 44 min
Bit rate : 44.0 kb/s
Count of elements : 2488
Stream size : 32.9 MiB (3%)
Language : Spanish
Default : No
Forced : No

Text #7
ID : 10
Format : PGS
Muxing mode : zlib
Codec ID : S_HDMV/PGS
Duration : 1 h 44 min
Bit rate : 42.6 kb/s
Count of elements : 2490
Stream size : 31.9 MiB (3%)
Language : Spanish
Default : No
Forced : No

Text #8
ID : 11
Format : PGS
Muxing mode : zlib
Codec ID : S_HDMV/PGS
Duration : 1 h 44 min
Bit rate : 36.2 kb/s
Count of elements : 2489
Stream size : 27.1 MiB (2%)
Language : Czech
Default : No
Forced : No

Text #9
ID : 12
Format : PGS
Muxing mode : zlib
Codec ID : S_HDMV/PGS
Duration : 1 h 44 min
Bit rate : 41.2 kb/s
Count of elements : 2475
Stream size : 30.9 MiB (3%)
Language : Dutch
Default : No
Forced : No

Text #10
ID : 13
Format : PGS
Muxing mode : zlib
Codec ID : S_HDMV/PGS
Duration : 1 h 44 min
Bit rate : 47.0 kb/s
Count of elements : 2534
Stream size : 35.2 MiB (3%)
Language : Greek
Default : No
Forced : No

Text #11
ID : 14
Format : PGS
Muxing mode : zlib
Codec ID : S_HDMV/PGS
Duration : 1 h 44 min
Bit rate : 43.3 kb/s
Count of elements : 2510
Stream size : 32.4 MiB (3%)
Language : Hungarian
Default : No
Forced : No

Text #12
ID : 15
Format : PGS
Muxing mode : zlib
Codec ID : S_HDMV/PGS
Duration : 1 h 44 min
Bit rate : 46.5 kb/s
Count of elements : 2489
Stream size : 34.8 MiB (3%)
Language : Portuguese
Default : No
Forced : No

Text #13
ID : 16
Format : PGS
Muxing mode : zlib
Codec ID : S_HDMV/PGS
Duration : 1 h 44 min
Bit rate : 28.9 kb/s
Count of elements : 2548
Stream size : 21.7 MiB (2%)
Language : Korean
Default : No
Forced : No

Text #14
ID : 17
Format : PGS
Muxing mode : zlib
Codec ID : S_HDMV/PGS
Duration : 1 h 45 min
Bit rate : 88.8 kb/s
Count of elements : 4074
Stream size : 67.1 MiB (6%)
Language : German
Default : No
Forced : No

Text #15
ID : 18
Format : PGS
Muxing mode : zlib
Codec ID : S_HDMV/PGS
Duration : 1 h 45 min
Bit rate : 78.6 kb/s
Count of elements : 4074
Stream size : 59.3 MiB (5%)
Language : Spanish
Default : No
Forced : No

Text #16
ID : 19
Format : PGS
Muxing mode : zlib
Codec ID : S_HDMV/PGS
Duration : 1 h 44 min
Bit rate : 4 490 b/s
Count of elements : 272
Stream size : 3.34 MiB (0%)
Language : German
Default : No
Forced : No

[collapse]
Download Link(s)

Download

Direct download files get automatically deleted after a month or so. Posted on : 05/7/2020

[collapse]
Magnet Link

Magnet

Senna (2010) + Extras (1080p BluRay x265 HEVC 10bit AAC 5.1-5.0 GB

[collapse]

Featurettes

Download

Direct download files get automatically deleted after a month or so. Posted on : 05/7/2020

File size: 402 MB (421,642,240 bytes)

[collapse]

You may also like...

error: nah :p~