Salt (2010)

PG-13 | 1h 40min | Action, Thriller | 23 July 2010 (USA)

A CIA agent goes on the run after a defector accuses her of being a Russian spy.

Watch trailer

Media information

General
Format : Matroska
Format version : Version 4
File size : 2.80 GiB
Duration : 1 h 40 min
Overall bit rate : 4 006 kb/s
Movie name : Salt.2010.2160p.10bit.HDR.BluRay.8CH.x265.HEVC

Video
ID : 1
Format : HEVC
Format/Info : High Efficiency Video Coding
Format profile : Main 10@L5@Main
HDR format : SMPTE ST 2086, HDR10 compatible
Codec ID : V_MPEGH/ISO/HEVC
Duration : 1 h 39 min
Bit rate : 3 683 kb/s
Width : 3 840 pixels
Height : 1 608 pixels
Display aspect ratio : 2.40:1
Frame rate mode : Constant
Frame rate : 23.976 (24000/1001) FPS
Color space : YUV
Chroma subsampling : 4:2:0
Bit depth : 10 bits
Bits/(Pixel*Frame) : 0.025
Stream size : 2.57 GiB (92%)
Default : Yes
Forced : No
Color range : Limited
Color primaries : BT.2020
Transfer characteristics : PQ
Matrix coefficients : BT.2020 non-constant
Mastering display color primaries : Display P3
Mastering display luminance : min: 0.0001 cd/m2, max: 1000 cd/m2
Maximum Content Light Level : 4000 cd/m2
Maximum Frame-Average Light Level : 1000 cd/m2

Audio
ID : 2
Format : AAC LC
Codec ID : A_AAC-2
Duration : 1 h 39 min
Bit rate : 320 kb/s
Channel(s) : 8 channels
Channel layout : C L R Ls Rs Lw Rw LFE
Sampling rate : 48.0 kHz
Frame rate : 46.875 FPS (1024 SPF)
Compression mode : Lossy
Delay relative to video : -21 ms
Stream size : 229 MiB (8%)
Language : English
Default : Yes
Forced : No

Text #1
ID : 3
Format : UTF-8
Codec ID : S_TEXT/UTF8
Codec ID/Info : UTF-8 Plain Text
Duration : 1 h 30 min
Bit rate : 47 b/s
Count of elements : 935
Stream size : 31.4 KiB (0%)
Language : English
Default : No
Forced : No

Text #2
ID : 4
Format : UTF-8
Codec ID : S_TEXT/UTF8
Codec ID/Info : UTF-8 Plain Text
Duration : 1 h 35 min
Bit rate : 49 b/s
Count of elements : 1045
Stream size : 34.6 KiB (0%)
Title : SDH
Language : English
Default : Yes
Forced : No

[collapse]
Download Link(s)

Part01 Part02

Direct download files get automatically deleted after a month or so. Posted on : 02/02/2021

[collapse]
Magnet Link

Magnet

Salt.2010.2160p.UHD.BluRay.x265.10bit.HDR.TrueHD.7.1.Atmos-IAMABLE-22.93 GB

[collapse]

Media information

General
Format : Matroska
Format version : Version 4
File size : 1.53 GiB
Duration : 1 h 40 min
Overall bit rate : 2 190 kb/s
Movie name : Salt.2010.1080p.10bit.BluRay.8CH.x265.HEVC

Video
ID : 1
Format : HEVC
Format/Info : High Efficiency Video Coding
Format profile : Main 10@L4@Main
Codec ID : V_MPEGH/ISO/HEVC
Duration : 1 h 39 min
Bit rate : 1 867 kb/s
Width : 1 920 pixels
Height : 804 pixels
Display aspect ratio : 2.40:1
Frame rate mode : Constant
Frame rate : 23.976 (24000/1001) FPS
Color space : YUV
Chroma subsampling : 4:2:0
Bit depth : 10 bits
Bits/(Pixel*Frame) : 0.050
Stream size : 1.30 GiB (85%)
Default : Yes
Forced : No
Color range : Limited
Color primaries : BT.2020
Transfer characteristics : PQ
Matrix coefficients : BT.2020 non-constant

Audio
ID : 2
Format : AAC LC
Codec ID : A_AAC-2
Duration : 1 h 39 min
Bit rate : 320 kb/s
Channel(s) : 8 channels
Channel layout : C L R Ls Rs Lw Rw LFE
Sampling rate : 48.0 kHz
Frame rate : 46.875 FPS (1024 SPF)
Compression mode : Lossy
Delay relative to video : -21 ms
Stream size : 229 MiB (15%)
Language : English
Default : Yes
Forced : No

Text #1
ID : 3
Format : UTF-8
Codec ID : S_TEXT/UTF8
Codec ID/Info : UTF-8 Plain Text
Duration : 1 h 30 min
Bit rate : 47 b/s
Count of elements : 935
Stream size : 31.4 KiB (0%)
Language : English
Default : No
Forced : No

Text #2
ID : 4
Format : UTF-8
Codec ID : S_TEXT/UTF8
Codec ID/Info : UTF-8 Plain Text
Duration : 1 h 35 min
Bit rate : 49 b/s
Count of elements : 1045
Stream size : 34.6 KiB (0%)
Title : SDH
Language : English
Default : Yes
Forced : No

[collapse]
Download Link(s)

Download

Direct download files get automatically deleted after a month or so. Posted on : 02/01/2021

[collapse]
Magnet Link

Magnet

Salt.2010.2160p.UHD.BluRay.x265.10bit.HDR.TrueHD.7.1.Atmos-IAMABLE-22.93 GB

[collapse]

Media information

General
Format : Matroska
Format version : Version 4
File size : 758 MiB
Duration : 1 h 40 min
Overall bit rate : 1 060 kb/s
Movie name : Salt.2010.720p.10bit.BluRay.6CH.x265.HEVC

Video
ID : 1
Format : HEVC
Format/Info : High Efficiency Video Coding
Format profile : Main [email protected]@Main
Codec ID : V_MPEGH/ISO/HEVC
Duration : 1 h 39 min
Bit rate : 866 kb/s
Width : 1 280 pixels
Height : 536 pixels
Display aspect ratio : 2.40:1
Frame rate mode : Constant
Frame rate : 23.976 (24000/1001) FPS
Color space : YUV
Chroma subsampling : 4:2:0
Bit depth : 10 bits
Bits/(Pixel*Frame) : 0.053
Stream size : 619 MiB (82%)
Default : Yes
Forced : No
Color range : Limited
Color primaries : BT.2020
Transfer characteristics : PQ
Matrix coefficients : BT.2020 non-constant

Audio
ID : 2
Format : AAC LC
Codec ID : A_AAC-2
Duration : 1 h 39 min
Bit rate : 192 kb/s
Channel(s) : 6 channels
Channel layout : C L R Ls Rs LFE
Sampling rate : 48.0 kHz
Frame rate : 46.875 FPS (1024 SPF)
Compression mode : Lossy
Delay relative to video : -21 ms
Stream size : 138 MiB (18%)
Language : English
Default : Yes
Forced : No

Text #1
ID : 3
Format : UTF-8
Codec ID : S_TEXT/UTF8
Codec ID/Info : UTF-8 Plain Text
Duration : 1 h 30 min
Bit rate : 47 b/s
Count of elements : 935
Stream size : 31.4 KiB (0%)
Language : English
Default : No
Forced : No

Text #2
ID : 4
Format : UTF-8
Codec ID : S_TEXT/UTF8
Codec ID/Info : UTF-8 Plain Text
Duration : 1 h 35 min
Bit rate : 49 b/s
Count of elements : 1045
Stream size : 34.6 KiB (0%)
Title : SDH
Language : English
Default : Yes
Forced : No

[collapse]
Download Link(s)

Download

Direct download files get automatically deleted after a month or so. Posted on : 02/01/2021

[collapse]
Magnet Link

Magnet

Salt.2010.2160p.UHD.BluRay.x265.10bit.HDR.TrueHD.7.1.Atmos-IAMABLE-22.93 GB

[collapse]

You may also like...

error: nah :p~