Run with the Hunted (2019)

1h 33min | Crime, Drama, Thriller | 26 June 2020 (USA)

Oscar, a young boy, defends his best friend, Loux, and kills her abusive father in the process, forcing him to run away from his rural hometown. His innocence slips away as he is introduced to love, crime and corruption. 15 years later, he has all but forgotten his past and become the leader of a band of lost children. When Loux moves to the same city in search of a better life, she finds a job with a curmudgeonly private investigator. Stumbling upon Oscar’s antiquated missing child report, Loux takes it upon herself to find the boy who saved her life.

Watch trailer

Media information

General
Format : Matroska
Format version : Version 4
File size : 558 MiB
Duration : 1 h 32 min
Overall bit rate : 841 kb/s
Movie name : Run.With.The.Hunted.2019.720p.WEBRip.2CH.x265.HEVC

Video
ID : 1
Format : HEVC
Format/Info : High Efficiency Video Coding
Format profile : [email protected]@Main
Codec ID : V_MPEGH/ISO/HEVC
Duration : 1 h 32 min
Bit rate : 775 kb/s
Width : 1 280 pixels
Height : 480 pixels
Display aspect ratio : 2.667
Frame rate mode : Constant
Frame rate : 23.976 (24000/1001) FPS
Color space : YUV
Chroma subsampling : 4:2:0
Bit depth : 8 bits
Bits/(Pixel*Frame) : 0.053
Stream size : 515 MiB (92%)
Default : Yes
Forced : No
Color range : Limited
Color primaries : BT.709
Transfer characteristics : BT.709
Matrix coefficients : BT.709

Audio
ID : 2
Format : AAC LC SBR
Commercial name : HE-AAC
Format settings : Explicit
Codec ID : A_AAC-2
Duration : 1 h 32 min
Bit rate : 64.0 kb/s
Channel(s) : 2 channels
Channel layout : L R
Sampling rate : 48.0 kHz
Frame rate : 23.438 FPS (2048 SPF)
Compression mode : Lossy
Delay relative to video : 23 ms
Stream size : 42.5 MiB (8%)
Language : English
Default : Yes
Forced : No

Text
ID : 3
Format : UTF-8
Codec ID : S_TEXT/UTF8
Codec ID/Info : UTF-8 Plain Text
Duration : 1 h 25 min
Bit rate : 41 b/s
Count of elements : 910
Stream size : 25.6 KiB (0%)
Language : English
Default : Yes
Forced : No

[collapse]
Download Link(s)

Download

Direct download files get automatically deleted after a month or so. Posted on : 06/20/2020

[collapse]
Magnet Link

Magnet

Run.with.the.Hunted.2019.1080p.WEBRip.DD5.1.x264-CM-5.40 GB

[collapse]

You may also like...

error: nah :p~