Road House (2024)

R | 2h 1min | Action, Thriller

Ex-UFC fighter Dalton takes a job as a bouncer at a Florida Keys roadhouse, only to discover that this paradise is not all it seems.

Watch trailer

Media information

General
Format : Matroska
Format version : Version 4
File size : 2.03 GiB
Duration : 2 h 3 min
Overall bit rate : 2 360 kb/s
Frame rate : 23.976 FPS
Movie name : Road.House.2024.1080p.10bit.WEBRip.6CH.x265.HEVC

Video
ID : 1
Format : HEVC
Format/Info : High Efficiency Video Coding
Format profile : Main 10@L4@Main
Codec ID : V_MPEGH/ISO/HEVC
Duration : 2 h 3 min
Bit rate : 2 153 kb/s
Width : 1 920 pixels
Height : 800 pixels
Display aspect ratio : 2.40:1
Frame rate mode : Constant
Frame rate : 23.976 (24000/1001) FPS
Color space : YUV
Chroma subsampling : 4:2:0
Bit depth : 10 bits
Bits/(Pixel*Frame) : 0.058
Stream size : 1.86 GiB (91%)
Default : Yes
Forced : No
Color range : Limited
Color primaries : BT.709
Transfer characteristics : BT.709
Matrix coefficients : BT.709

Audio
ID : 2
Format : AAC LC SBR
Commercial name : HE-AAC
Format settings : Explicit
Codec ID : A_AAC-2
Duration : 2 h 3 min
Bit rate : 201 kb/s
Channel(s) : 6 channels
Channel layout : C L R Ls Rs LFE
Sampling rate : 48.0 kHz
Frame rate : 23.438 FPS (2048 SPF)
Compression mode : Lossy
Delay relative to video : 23 ms
Stream size : 178 MiB (9%)
Language : English
Default : Yes
Forced : No

Text #1
ID : 3
Format : UTF-8
Codec ID : S_TEXT/UTF8
Codec ID/Info : UTF-8 Plain Text
Duration : 1 h 53 min
Bit rate : 58 b/s
Frame rate : 0.245 FPS
Count of elements : 1673
Stream size : 49.2 KiB (0%)
Language : English (US)
Default : No
Forced : No

Text #2
ID : 4
Format : UTF-8
Codec ID : S_TEXT/UTF8
Codec ID/Info : UTF-8 Plain Text
Duration : 1 h 54 min
Bit rate : 63 b/s
Frame rate : 0.267 FPS
Count of elements : 1832
Stream size : 53.3 KiB (0%)
Title : SDH
Language : English (US)
Default : Yes
Forced : No

Text #3
ID : 5
Format : UTF-8
Codec ID : S_TEXT/UTF8
Codec ID/Info : UTF-8 Plain Text
Duration : 2 h 0 min
Bit rate : 88 b/s
Frame rate : 0.214 FPS
Count of elements : 1548
Stream size : 78.1 KiB (0%)
Language : Arabic (001)
Default : No
Forced : No

Text #4
ID : 6
Format : UTF-8
Codec ID : S_TEXT/UTF8
Codec ID/Info : UTF-8 Plain Text
Duration : 2 h 0 min
Bit rate : 41 b/s
Frame rate : 0.201 FPS
Count of elements : 1449
Stream size : 36.8 KiB (0%)
Title : European
Language : Catalan (ES)
Default : No
Forced : No

Text #5
ID : 7
Format : UTF-8
Codec ID : S_TEXT/UTF8
Codec ID/Info : UTF-8 Plain Text
Duration : 2 h 0 min
Bit rate : 45 b/s
Frame rate : 0.202 FPS
Count of elements : 1461
Stream size : 39.9 KiB (0%)
Language : Czech (CZ)
Default : No
Forced : No

Text #6
ID : 8
Format : UTF-8
Codec ID : S_TEXT/UTF8
Codec ID/Info : UTF-8 Plain Text
Duration : 2 h 0 min
Bit rate : 43 b/s
Frame rate : 0.214 FPS
Count of elements : 1542
Stream size : 38.6 KiB (0%)
Language : Danish (DK)
Default : No
Forced : No

Text #7
ID : 9
Format : UTF-8
Codec ID : S_TEXT/UTF8
Codec ID/Info : UTF-8 Plain Text
Duration : 2 h 0 min
Bit rate : 43 b/s
Frame rate : 0.201 FPS
Count of elements : 1452
Stream size : 38.0 KiB (0%)
Language : German (DE)
Default : No
Forced : No

Text #8
ID : 10
Format : UTF-8
Codec ID : S_TEXT/UTF8
Codec ID/Info : UTF-8 Plain Text
Duration : 2 h 0 min
Bit rate : 84 b/s
Frame rate : 0.210 FPS
Count of elements : 1517
Stream size : 74.6 KiB (0%)
Language : Greek (GR)
Default : No
Forced : No

Text #9
ID : 11
Format : UTF-8
Codec ID : S_TEXT/UTF8
Codec ID/Info : UTF-8 Plain Text
Duration : 2 h 0 min
Bit rate : 42 b/s
Frame rate : 0.203 FPS
Count of elements : 1467
Stream size : 37.6 KiB (0%)
Title : Latin American
Language : Spanish (Latin America)
Default : No
Forced : No

Text #10
ID : 12
Format : UTF-8
Codec ID : S_TEXT/UTF8
Codec ID/Info : UTF-8 Plain Text
Duration : 2 h 0 min
Bit rate : 43 b/s
Frame rate : 0.203 FPS
Count of elements : 1464
Stream size : 38.3 KiB (0%)
Language : Spanish (ES)
Default : No
Forced : No

Text #11
ID : 13
Format : UTF-8
Codec ID : S_TEXT/UTF8
Codec ID/Info : UTF-8 Plain Text
Duration : 2 h 0 min
Bit rate : 40 b/s
Frame rate : 0.203 FPS
Count of elements : 1466
Stream size : 36.1 KiB (0%)
Title : European
Language : Basque (ES)
Default : No
Forced : No

Text #12
ID : 14
Format : UTF-8
Codec ID : S_TEXT/UTF8
Codec ID/Info : UTF-8 Plain Text
Duration : 2 h 0 min
Bit rate : 40 b/s
Frame rate : 0.203 FPS
Count of elements : 1465
Stream size : 35.3 KiB (0%)
Language : Finnish (FI)
Default : No
Forced : No

Text #13
ID : 15
Format : UTF-8
Codec ID : S_TEXT/UTF8
Codec ID/Info : UTF-8 Plain Text
Duration : 2 h 0 min
Bit rate : 48 b/s
Frame rate : 0.214 FPS
Count of elements : 1547
Stream size : 43.0 KiB (0%)
Title : Canadian
Language : French (CA)
Default : No
Forced : No

Text #14
ID : 16
Format : UTF-8
Codec ID : S_TEXT/UTF8
Codec ID/Info : UTF-8 Plain Text
Duration : 2 h 0 min
Bit rate : 41 b/s
Frame rate : 0.199 FPS
Count of elements : 1440
Stream size : 36.5 KiB (0%)
Language : French (FR)
Default : No
Forced : No

Text #15
ID : 17
Format : UTF-8
Codec ID : S_TEXT/UTF8
Codec ID/Info : UTF-8 Plain Text
Duration : 2 h 0 min
Bit rate : 40 b/s
Frame rate : 0.202 FPS
Count of elements : 1461
Stream size : 36.0 KiB (0%)
Title : European
Language : Galician (ES)
Default : No
Forced : No

Text #16
ID : 18
Format : UTF-8
Codec ID : S_TEXT/UTF8
Codec ID/Info : UTF-8 Plain Text
Duration : 2 h 0 min
Bit rate : 73 b/s
Frame rate : 0.204 FPS
Count of elements : 1470
Stream size : 65.2 KiB (0%)
Language : Hebrew (IL)
Default : No
Forced : No

Text #17
ID : 19
Format : UTF-8
Codec ID : S_TEXT/UTF8
Codec ID/Info : UTF-8 Plain Text
Duration : 2 h 0 min
Bit rate : 116 b/s
Frame rate : 0.214 FPS
Count of elements : 1548
Stream size : 103 KiB (0%)
Language : Hindi (IN)
Default : No
Forced : No

Text #18
ID : 20
Format : UTF-8
Codec ID : S_TEXT/UTF8
Codec ID/Info : UTF-8 Plain Text
Duration : 2 h 0 min
Bit rate : 44 b/s
Frame rate : 0.203 FPS
Count of elements : 1467
Stream size : 38.8 KiB (0%)
Language : Hungarian (HU)
Default : No
Forced : No

Text #19
ID : 21
Format : UTF-8
Codec ID : S_TEXT/UTF8
Codec ID/Info : UTF-8 Plain Text
Duration : 2 h 0 min
Bit rate : 42 b/s
Frame rate : 0.203 FPS
Count of elements : 1466
Stream size : 37.1 KiB (0%)
Language : Indonesian (ID)
Default : No
Forced : No

Text #20
ID : 22
Format : UTF-8
Codec ID : S_TEXT/UTF8
Codec ID/Info : UTF-8 Plain Text
Duration : 2 h 0 min
Bit rate : 42 b/s
Frame rate : 0.202 FPS
Count of elements : 1456
Stream size : 37.3 KiB (0%)
Language : Italian (IT)
Default : No
Forced : No

Text #21
ID : 23
Format : UTF-8
Codec ID : S_TEXT/UTF8
Codec ID/Info : UTF-8 Plain Text
Duration : 2 h 0 min
Bit rate : 35 b/s
Frame rate : 0.175 FPS
Count of elements : 1262
Stream size : 31.0 KiB (0%)
Language : Japanese (JP)
Default : No
Forced : No

Text #22
ID : 24
Format : UTF-8
Codec ID : S_TEXT/UTF8
Codec ID/Info : UTF-8 Plain Text
Duration : 2 h 0 min
Bit rate : 100 b/s
Frame rate : 0.204 FPS
Count of elements : 1470
Stream size : 88.8 KiB (0%)
Language : Kannada (IN)
Default : No
Forced : No

Text #23
ID : 25
Format : UTF-8
Codec ID : S_TEXT/UTF8
Codec ID/Info : UTF-8 Plain Text
Duration : 2 h 0 min
Bit rate : 54 b/s
Frame rate : 0.214 FPS
Count of elements : 1548
Stream size : 48.1 KiB (0%)
Language : Korean (KR)
Default : No
Forced : No

Text #24
ID : 26
Format : UTF-8
Codec ID : S_TEXT/UTF8
Codec ID/Info : UTF-8 Plain Text
Duration : 2 h 0 min
Bit rate : 140 b/s
Frame rate : 0.213 FPS
Count of elements : 1541
Stream size : 124 KiB (0%)
Language : Malayalam (IN)
Default : No
Forced : No

Text #25
ID : 27
Format : UTF-8
Codec ID : S_TEXT/UTF8
Codec ID/Info : UTF-8 Plain Text
Duration : 2 h 0 min
Bit rate : 46 b/s
Frame rate : 0.213 FPS
Count of elements : 1538
Stream size : 40.8 KiB (0%)
Language : Malay (MY)
Default : No
Forced : No

Text #26
ID : 28
Format : UTF-8
Codec ID : S_TEXT/UTF8
Codec ID/Info : UTF-8 Plain Text
Duration : 2 h 0 min
Bit rate : 44 b/s
Frame rate : 0.213 FPS
Count of elements : 1540
Stream size : 39.0 KiB (0%)
Language : Norwegian Bokmal (NO)
Default : No
Forced : No

Text #27
ID : 29
Format : UTF-8
Codec ID : S_TEXT/UTF8
Codec ID/Info : UTF-8 Plain Text
Duration : 2 h 0 min
Bit rate : 42 b/s
Frame rate : 0.213 FPS
Count of elements : 1538
Stream size : 37.1 KiB (0%)
Language : Dutch (NL)
Default : No
Forced : No

Text #28
ID : 30
Format : UTF-8
Codec ID : S_TEXT/UTF8
Codec ID/Info : UTF-8 Plain Text
Duration : 2 h 0 min
Bit rate : 38 b/s
Frame rate : 0.200 FPS
Count of elements : 1442
Stream size : 34.0 KiB (0%)
Language : Polish (PL)
Default : No
Forced : No

Text #29
ID : 31
Format : UTF-8
Codec ID : S_TEXT/UTF8
Codec ID/Info : UTF-8 Plain Text
Duration : 2 h 0 min
Bit rate : 42 b/s
Frame rate : 0.210 FPS
Count of elements : 1514
Stream size : 37.8 KiB (0%)
Title : Brazilian
Language : Portuguese (BR)
Default : No
Forced : No

Text #30
ID : 32
Format : UTF-8
Codec ID : S_TEXT/UTF8
Codec ID/Info : UTF-8 Plain Text
Duration : 2 h 0 min
Bit rate : 46 b/s
Frame rate : 0.203 FPS
Count of elements : 1468
Stream size : 41.2 KiB (0%)
Language : Romanian (RO)
Default : No
Forced : No

Text #31
ID : 33
Format : UTF-8
Codec ID : S_TEXT/UTF8
Codec ID/Info : UTF-8 Plain Text
Duration : 2 h 0 min
Bit rate : 44 b/s
Frame rate : 0.203 FPS
Count of elements : 1464
Stream size : 39.5 KiB (0%)
Language : Swedish (SE)
Default : No
Forced : No

Text #32
ID : 34
Format : UTF-8
Codec ID : S_TEXT/UTF8
Codec ID/Info : UTF-8 Plain Text
Duration : 2 h 0 min
Bit rate : 111 b/s
Frame rate : 0.204 FPS
Count of elements : 1470
Stream size : 97.9 KiB (0%)
Language : Tamil (IN)
Default : No
Forced : No

Text #33
ID : 35
Format : UTF-8
Codec ID : S_TEXT/UTF8
Codec ID/Info : UTF-8 Plain Text
Duration : 2 h 0 min
Bit rate : 102 b/s
Frame rate : 0.201 FPS
Count of elements : 1455
Stream size : 90.0 KiB (0%)
Language : Telugu (IN)
Default : No
Forced : No

Text #34
ID : 36
Format : UTF-8
Codec ID : S_TEXT/UTF8
Codec ID/Info : UTF-8 Plain Text
Duration : 2 h 0 min
Bit rate : 111 b/s
Frame rate : 0.215 FPS
Count of elements : 1551
Stream size : 98.1 KiB (0%)
Language : Thai (TH)
Default : No
Forced : No

Text #35
ID : 37
Format : UTF-8
Codec ID : S_TEXT/UTF8
Codec ID/Info : UTF-8 Plain Text
Duration : 2 h 0 min
Bit rate : 45 b/s
Frame rate : 0.212 FPS
Count of elements : 1528
Stream size : 39.8 KiB (0%)
Language : Turkish (TR)
Default : No
Forced : No

Text #36
ID : 38
Format : UTF-8
Codec ID : S_TEXT/UTF8
Codec ID/Info : UTF-8 Plain Text
Duration : 2 h 0 min
Bit rate : 46 b/s
Frame rate : 0.214 FPS
Count of elements : 1548
Stream size : 41.4 KiB (0%)
Title : Simplified
Language : Chinese (Simplified)
Default : No
Forced : No

Text #37
ID : 39
Format : UTF-8
Codec ID : S_TEXT/UTF8
Codec ID/Info : UTF-8 Plain Text
Duration : 2 h 0 min
Bit rate : 39 b/s
Frame rate : 0.204 FPS
Count of elements : 1470
Stream size : 35.1 KiB (0%)
Title : Traditional
Language : Chinese (Traditional)
Default : No
Forced : No

[collapse]
Download Link(s)

Download

Direct download files get automatically deleted after a month or so. Posted on : 03/21/2024

[collapse]
Magnet Link

Magnet

Road.House.2024.1080p.AMZN.WEB-DL.DDP5.1.H.264-FLUX-8.12 GB

[collapse]

Media information

General
Format : Matroska
Format version : Version 4
File size : 1.05 GiB
Duration : 2 h 3 min
Overall bit rate : 1 215 kb/s
Frame rate : 23.976 FPS
Movie name : Road.House.2024.720p.10bit.WEBRip.6CH.x265.HEVC

Video
ID : 1
Format : HEVC
Format/Info : High Efficiency Video Coding
Format profile : Main [email protected]@Main
Codec ID : V_MPEGH/ISO/HEVC
Duration : 2 h 3 min
Bit rate : 1 008 kb/s
Width : 1 280 pixels
Height : 536 pixels
Display aspect ratio : 2.39:1
Frame rate mode : Constant
Frame rate : 23.976 (24000/1001) FPS
Color space : YUV
Chroma subsampling : 4:2:0
Bit depth : 10 bits
Bits/(Pixel*Frame) : 0.061
Stream size : 889 MiB (83%)
Default : Yes
Forced : No
Color range : Limited
Color primaries : BT.709
Transfer characteristics : BT.709
Matrix coefficients : BT.709

Audio
ID : 2
Format : AAC LC SBR
Commercial name : HE-AAC
Format settings : Explicit
Codec ID : A_AAC-2
Duration : 2 h 3 min
Bit rate : 201 kb/s
Channel(s) : 6 channels
Channel layout : C L R Ls Rs LFE
Sampling rate : 48.0 kHz
Frame rate : 23.438 FPS (2048 SPF)
Compression mode : Lossy
Delay relative to video : 23 ms
Stream size : 178 MiB (17%)
Language : English
Default : Yes
Forced : No

Text #1
ID : 3
Format : UTF-8
Codec ID : S_TEXT/UTF8
Codec ID/Info : UTF-8 Plain Text
Duration : 1 h 53 min
Bit rate : 58 b/s
Frame rate : 0.245 FPS
Count of elements : 1673
Stream size : 49.2 KiB (0%)
Language : English (US)
Default : No
Forced : No

Text #2
ID : 4
Format : UTF-8
Codec ID : S_TEXT/UTF8
Codec ID/Info : UTF-8 Plain Text
Duration : 1 h 54 min
Bit rate : 63 b/s
Frame rate : 0.267 FPS
Count of elements : 1832
Stream size : 53.3 KiB (0%)
Title : SDH
Language : English (US)
Default : Yes
Forced : No

Text #3
ID : 5
Format : UTF-8
Codec ID : S_TEXT/UTF8
Codec ID/Info : UTF-8 Plain Text
Duration : 2 h 0 min
Bit rate : 88 b/s
Frame rate : 0.214 FPS
Count of elements : 1548
Stream size : 78.1 KiB (0%)
Language : Arabic (001)
Default : No
Forced : No

Text #4
ID : 6
Format : UTF-8
Codec ID : S_TEXT/UTF8
Codec ID/Info : UTF-8 Plain Text
Duration : 2 h 0 min
Bit rate : 41 b/s
Frame rate : 0.201 FPS
Count of elements : 1449
Stream size : 36.8 KiB (0%)
Title : European
Language : Catalan (ES)
Default : No
Forced : No

Text #5
ID : 7
Format : UTF-8
Codec ID : S_TEXT/UTF8
Codec ID/Info : UTF-8 Plain Text
Duration : 2 h 0 min
Bit rate : 45 b/s
Frame rate : 0.202 FPS
Count of elements : 1461
Stream size : 39.9 KiB (0%)
Language : Czech (CZ)
Default : No
Forced : No

Text #6
ID : 8
Format : UTF-8
Codec ID : S_TEXT/UTF8
Codec ID/Info : UTF-8 Plain Text
Duration : 2 h 0 min
Bit rate : 43 b/s
Frame rate : 0.214 FPS
Count of elements : 1542
Stream size : 38.6 KiB (0%)
Language : Danish (DK)
Default : No
Forced : No

Text #7
ID : 9
Format : UTF-8
Codec ID : S_TEXT/UTF8
Codec ID/Info : UTF-8 Plain Text
Duration : 2 h 0 min
Bit rate : 43 b/s
Frame rate : 0.201 FPS
Count of elements : 1452
Stream size : 38.0 KiB (0%)
Language : German (DE)
Default : No
Forced : No

Text #8
ID : 10
Format : UTF-8
Codec ID : S_TEXT/UTF8
Codec ID/Info : UTF-8 Plain Text
Duration : 2 h 0 min
Bit rate : 84 b/s
Frame rate : 0.210 FPS
Count of elements : 1517
Stream size : 74.6 KiB (0%)
Language : Greek (GR)
Default : No
Forced : No

Text #9
ID : 11
Format : UTF-8
Codec ID : S_TEXT/UTF8
Codec ID/Info : UTF-8 Plain Text
Duration : 2 h 0 min
Bit rate : 42 b/s
Frame rate : 0.203 FPS
Count of elements : 1467
Stream size : 37.6 KiB (0%)
Title : Latin American
Language : Spanish (Latin America)
Default : No
Forced : No

Text #10
ID : 12
Format : UTF-8
Codec ID : S_TEXT/UTF8
Codec ID/Info : UTF-8 Plain Text
Duration : 2 h 0 min
Bit rate : 43 b/s
Frame rate : 0.203 FPS
Count of elements : 1464
Stream size : 38.3 KiB (0%)
Language : Spanish (ES)
Default : No
Forced : No

Text #11
ID : 13
Format : UTF-8
Codec ID : S_TEXT/UTF8
Codec ID/Info : UTF-8 Plain Text
Duration : 2 h 0 min
Bit rate : 40 b/s
Frame rate : 0.203 FPS
Count of elements : 1466
Stream size : 36.1 KiB (0%)
Title : European
Language : Basque (ES)
Default : No
Forced : No

Text #12
ID : 14
Format : UTF-8
Codec ID : S_TEXT/UTF8
Codec ID/Info : UTF-8 Plain Text
Duration : 2 h 0 min
Bit rate : 40 b/s
Frame rate : 0.203 FPS
Count of elements : 1465
Stream size : 35.3 KiB (0%)
Language : Finnish (FI)
Default : No
Forced : No

Text #13
ID : 15
Format : UTF-8
Codec ID : S_TEXT/UTF8
Codec ID/Info : UTF-8 Plain Text
Duration : 2 h 0 min
Bit rate : 48 b/s
Frame rate : 0.214 FPS
Count of elements : 1547
Stream size : 43.0 KiB (0%)
Title : Canadian
Language : French (CA)
Default : No
Forced : No

Text #14
ID : 16
Format : UTF-8
Codec ID : S_TEXT/UTF8
Codec ID/Info : UTF-8 Plain Text
Duration : 2 h 0 min
Bit rate : 41 b/s
Frame rate : 0.199 FPS
Count of elements : 1440
Stream size : 36.5 KiB (0%)
Language : French (FR)
Default : No
Forced : No

Text #15
ID : 17
Format : UTF-8
Codec ID : S_TEXT/UTF8
Codec ID/Info : UTF-8 Plain Text
Duration : 2 h 0 min
Bit rate : 40 b/s
Frame rate : 0.202 FPS
Count of elements : 1461
Stream size : 36.0 KiB (0%)
Title : European
Language : Galician (ES)
Default : No
Forced : No

Text #16
ID : 18
Format : UTF-8
Codec ID : S_TEXT/UTF8
Codec ID/Info : UTF-8 Plain Text
Duration : 2 h 0 min
Bit rate : 73 b/s
Frame rate : 0.204 FPS
Count of elements : 1470
Stream size : 65.2 KiB (0%)
Language : Hebrew (IL)
Default : No
Forced : No

Text #17
ID : 19
Format : UTF-8
Codec ID : S_TEXT/UTF8
Codec ID/Info : UTF-8 Plain Text
Duration : 2 h 0 min
Bit rate : 116 b/s
Frame rate : 0.214 FPS
Count of elements : 1548
Stream size : 103 KiB (0%)
Language : Hindi (IN)
Default : No
Forced : No

Text #18
ID : 20
Format : UTF-8
Codec ID : S_TEXT/UTF8
Codec ID/Info : UTF-8 Plain Text
Duration : 2 h 0 min
Bit rate : 44 b/s
Frame rate : 0.203 FPS
Count of elements : 1467
Stream size : 38.8 KiB (0%)
Language : Hungarian (HU)
Default : No
Forced : No

Text #19
ID : 21
Format : UTF-8
Codec ID : S_TEXT/UTF8
Codec ID/Info : UTF-8 Plain Text
Duration : 2 h 0 min
Bit rate : 42 b/s
Frame rate : 0.203 FPS
Count of elements : 1466
Stream size : 37.1 KiB (0%)
Language : Indonesian (ID)
Default : No
Forced : No

Text #20
ID : 22
Format : UTF-8
Codec ID : S_TEXT/UTF8
Codec ID/Info : UTF-8 Plain Text
Duration : 2 h 0 min
Bit rate : 42 b/s
Frame rate : 0.202 FPS
Count of elements : 1456
Stream size : 37.3 KiB (0%)
Language : Italian (IT)
Default : No
Forced : No

Text #21
ID : 23
Format : UTF-8
Codec ID : S_TEXT/UTF8
Codec ID/Info : UTF-8 Plain Text
Duration : 2 h 0 min
Bit rate : 35 b/s
Frame rate : 0.175 FPS
Count of elements : 1262
Stream size : 31.0 KiB (0%)
Language : Japanese (JP)
Default : No
Forced : No

Text #22
ID : 24
Format : UTF-8
Codec ID : S_TEXT/UTF8
Codec ID/Info : UTF-8 Plain Text
Duration : 2 h 0 min
Bit rate : 100 b/s
Frame rate : 0.204 FPS
Count of elements : 1470
Stream size : 88.8 KiB (0%)
Language : Kannada (IN)
Default : No
Forced : No

Text #23
ID : 25
Format : UTF-8
Codec ID : S_TEXT/UTF8
Codec ID/Info : UTF-8 Plain Text
Duration : 2 h 0 min
Bit rate : 54 b/s
Frame rate : 0.214 FPS
Count of elements : 1548
Stream size : 48.1 KiB (0%)
Language : Korean (KR)
Default : No
Forced : No

Text #24
ID : 26
Format : UTF-8
Codec ID : S_TEXT/UTF8
Codec ID/Info : UTF-8 Plain Text
Duration : 2 h 0 min
Bit rate : 140 b/s
Frame rate : 0.213 FPS
Count of elements : 1541
Stream size : 124 KiB (0%)
Language : Malayalam (IN)
Default : No
Forced : No

Text #25
ID : 27
Format : UTF-8
Codec ID : S_TEXT/UTF8
Codec ID/Info : UTF-8 Plain Text
Duration : 2 h 0 min
Bit rate : 46 b/s
Frame rate : 0.213 FPS
Count of elements : 1538
Stream size : 40.8 KiB (0%)
Language : Malay (MY)
Default : No
Forced : No

Text #26
ID : 28
Format : UTF-8
Codec ID : S_TEXT/UTF8
Codec ID/Info : UTF-8 Plain Text
Duration : 2 h 0 min
Bit rate : 44 b/s
Frame rate : 0.213 FPS
Count of elements : 1540
Stream size : 39.0 KiB (0%)
Language : Norwegian Bokmal (NO)
Default : No
Forced : No

Text #27
ID : 29
Format : UTF-8
Codec ID : S_TEXT/UTF8
Codec ID/Info : UTF-8 Plain Text
Duration : 2 h 0 min
Bit rate : 42 b/s
Frame rate : 0.213 FPS
Count of elements : 1538
Stream size : 37.1 KiB (0%)
Language : Dutch (NL)
Default : No
Forced : No

Text #28
ID : 30
Format : UTF-8
Codec ID : S_TEXT/UTF8
Codec ID/Info : UTF-8 Plain Text
Duration : 2 h 0 min
Bit rate : 38 b/s
Frame rate : 0.200 FPS
Count of elements : 1442
Stream size : 34.0 KiB (0%)
Language : Polish (PL)
Default : No
Forced : No

Text #29
ID : 31
Format : UTF-8
Codec ID : S_TEXT/UTF8
Codec ID/Info : UTF-8 Plain Text
Duration : 2 h 0 min
Bit rate : 42 b/s
Frame rate : 0.210 FPS
Count of elements : 1514
Stream size : 37.8 KiB (0%)
Title : Brazilian
Language : Portuguese (BR)
Default : No
Forced : No

Text #30
ID : 32
Format : UTF-8
Codec ID : S_TEXT/UTF8
Codec ID/Info : UTF-8 Plain Text
Duration : 2 h 0 min
Bit rate : 46 b/s
Frame rate : 0.203 FPS
Count of elements : 1468
Stream size : 41.2 KiB (0%)
Language : Romanian (RO)
Default : No
Forced : No

Text #31
ID : 33
Format : UTF-8
Codec ID : S_TEXT/UTF8
Codec ID/Info : UTF-8 Plain Text
Duration : 2 h 0 min
Bit rate : 44 b/s
Frame rate : 0.203 FPS
Count of elements : 1464
Stream size : 39.5 KiB (0%)
Language : Swedish (SE)
Default : No
Forced : No

Text #32
ID : 34
Format : UTF-8
Codec ID : S_TEXT/UTF8
Codec ID/Info : UTF-8 Plain Text
Duration : 2 h 0 min
Bit rate : 111 b/s
Frame rate : 0.204 FPS
Count of elements : 1470
Stream size : 97.9 KiB (0%)
Language : Tamil (IN)
Default : No
Forced : No

Text #33
ID : 35
Format : UTF-8
Codec ID : S_TEXT/UTF8
Codec ID/Info : UTF-8 Plain Text
Duration : 2 h 0 min
Bit rate : 102 b/s
Frame rate : 0.201 FPS
Count of elements : 1455
Stream size : 90.0 KiB (0%)
Language : Telugu (IN)
Default : No
Forced : No

Text #34
ID : 36
Format : UTF-8
Codec ID : S_TEXT/UTF8
Codec ID/Info : UTF-8 Plain Text
Duration : 2 h 0 min
Bit rate : 111 b/s
Frame rate : 0.215 FPS
Count of elements : 1551
Stream size : 98.1 KiB (0%)
Language : Thai (TH)
Default : No
Forced : No

Text #35
ID : 37
Format : UTF-8
Codec ID : S_TEXT/UTF8
Codec ID/Info : UTF-8 Plain Text
Duration : 2 h 0 min
Bit rate : 45 b/s
Frame rate : 0.212 FPS
Count of elements : 1528
Stream size : 39.8 KiB (0%)
Language : Turkish (TR)
Default : No
Forced : No

Text #36
ID : 38
Format : UTF-8
Codec ID : S_TEXT/UTF8
Codec ID/Info : UTF-8 Plain Text
Duration : 2 h 0 min
Bit rate : 46 b/s
Frame rate : 0.214 FPS
Count of elements : 1548
Stream size : 41.4 KiB (0%)
Title : Simplified
Language : Chinese (Simplified)
Default : No
Forced : No

Text #37
ID : 39
Format : UTF-8
Codec ID : S_TEXT/UTF8
Codec ID/Info : UTF-8 Plain Text
Duration : 2 h 0 min
Bit rate : 39 b/s
Frame rate : 0.204 FPS
Count of elements : 1470
Stream size : 35.1 KiB (0%)
Title : Traditional
Language : Chinese (Traditional)
Default : No
Forced : No

[collapse]
Download Link(s)

Download

Direct download files get automatically deleted after a month or so. Posted on : 03/21/2024

[collapse]
Magnet Link

Magnet

Road.House.2024.1080p.AMZN.WEB-DL.DDP5.1.H.264-FLUX-8.12 GB

[collapse]

You may also like...

error: nah :p~