Ricky Gervais: Humanity (2018)

TV Special | TV-MA | 1h 19min | Comedy |

Live performance of British comedian Ricky Gervais filmed in London’s Eventim Apollow.

Watch trailer

Media information

General
Format : Matroska
Format version : Version 4
File size : 1.35 GiB
Duration : 1 h 18 min
Overall bit rate : 2 456 kb/s
Frame rate : 25.000 FPS
Movie name : Ricky.Gervais.Humanity.2018.1080p.10bit.WEBRip.6CH.x265.HEVC

Video
ID : 1
Format : HEVC
Format/Info : High Efficiency Video Coding
Format profile : Main 10@L4@Main
Codec ID : V_MPEGH/ISO/HEVC
Duration : 1 h 18 min
Bit rate : 2 069 kb/s
Width : 1 920 pixels
Height : 1 080 pixels
Display aspect ratio : 16:9
Frame rate mode : Constant
Frame rate : 25.000 FPS
Color space : YUV
Chroma subsampling : 4:2:0 (Type 0)
Bit depth : 10 bits
Bits/(Pixel*Frame) : 0.040
Stream size : 1.14 GiB (84%)
Default : Yes
Forced : No
Color range : Limited

Audio
ID : 2
Format : AC-3
Format/Info : Audio Coding 3
Commercial name : Dolby Digital
Codec ID : A_AC3
Duration : 1 h 18 min
Bit rate mode : Constant
Bit rate : 384 kb/s
Channel(s) : 6 channels
Channel layout : L R C LFE Ls Rs
Sampling rate : 48.0 kHz
Frame rate : 31.250 FPS (1536 SPF)
Bit depth : 32 bits
Compression mode : Lossy
Stream size : 216 MiB (16%)
Language : English
Service kind : Complete Main
Default : Yes
Forced : No

Text #1
ID : 3
Format : UTF-8
Codec ID : S_TEXT/UTF8
Codec ID/Info : UTF-8 Plain Text
Duration : 1 h 17 min
Bit rate : 98 b/s
Frame rate : 0.335 FPS
Count of elements : 1555
Stream size : 55.6 KiB (0%)
Language : English
Default : Yes
Forced : No

Text #2
ID : 4
Format : UTF-8
Codec ID : S_TEXT/UTF8
Codec ID/Info : UTF-8 Plain Text
Duration : 1 h 18 min
Bit rate : 95 b/s
Frame rate : 0.352 FPS
Count of elements : 1657
Stream size : 54.8 KiB (0%)
Language : Swedish
Default : No
Forced : No

Text #3
ID : 5
Format : UTF-8
Codec ID : S_TEXT/UTF8
Codec ID/Info : UTF-8 Plain Text
Duration : 1 h 18 min
Bit rate : 89 b/s
Frame rate : 0.309 FPS
Count of elements : 1455
Stream size : 51.6 KiB (0%)
Language : Norwegian
Default : No
Forced : No

Text #4
ID : 6
Format : UTF-8
Codec ID : S_TEXT/UTF8
Codec ID/Info : UTF-8 Plain Text
Duration : 1 h 18 min
Bit rate : 97 b/s
Frame rate : 0.286 FPS
Count of elements : 1348
Stream size : 56.2 KiB (0%)
Language : German
Default : No
Forced : No

Text #5
ID : 7
Format : UTF-8
Codec ID : S_TEXT/UTF8
Codec ID/Info : UTF-8 Plain Text
Duration : 1 h 18 min
Bit rate : 90 b/s
Frame rate : 0.264 FPS
Count of elements : 1242
Stream size : 52.1 KiB (0%)
Language : Finnish
Default : No
Forced : No

[collapse]
Download Link(s)

Download

Direct download files get automatically deleted after a month or so. Posted on : 12/27/2023

[collapse]
Magnet Link

Magnet

Ricky.Gervais.Humanity.2018.1080p.WEB.x264-AMRAP-3.40 GB

[collapse]

Media information

General
Format : Matroska
Format version : Version 4
File size : 656 MiB
Duration : 1 h 18 min
Overall bit rate : 1 165 kb/s
Frame rate : 25.000 FPS
Movie name : Ricky.Gervais.Humanity.2018.720p.10bit.WEBRip.6CH.x265.HEVC

Video
ID : 1
Format : HEVC
Format/Info : High Efficiency Video Coding
Format profile : Main [email protected]@Main
Codec ID : V_MPEGH/ISO/HEVC
Duration : 1 h 18 min
Bit rate : 970 kb/s
Width : 1 280 pixels
Height : 720 pixels
Display aspect ratio : 16:9
Frame rate mode : Constant
Frame rate : 25.000 FPS
Color space : YUV
Chroma subsampling : 4:2:0 (Type 0)
Bit depth : 10 bits
Bits/(Pixel*Frame) : 0.042
Stream size : 546 MiB (83%)
Default : Yes
Forced : No
Color range : Limited

Audio
ID : 2
Format : AC-3
Format/Info : Audio Coding 3
Commercial name : Dolby Digital
Codec ID : A_AC3
Duration : 1 h 18 min
Bit rate mode : Constant
Bit rate : 192 kb/s
Channel(s) : 6 channels
Channel layout : L R C LFE Ls Rs
Sampling rate : 48.0 kHz
Frame rate : 31.250 FPS (1536 SPF)
Bit depth : 32 bits
Compression mode : Lossy
Stream size : 108 MiB (16%)
Language : English
Service kind : Complete Main
Default : Yes
Forced : No

Text #1
ID : 3
Format : UTF-8
Codec ID : S_TEXT/UTF8
Codec ID/Info : UTF-8 Plain Text
Duration : 1 h 17 min
Bit rate : 98 b/s
Frame rate : 0.335 FPS
Count of elements : 1555
Stream size : 55.6 KiB (0%)
Language : English
Default : Yes
Forced : No

Text #2
ID : 4
Format : UTF-8
Codec ID : S_TEXT/UTF8
Codec ID/Info : UTF-8 Plain Text
Duration : 1 h 18 min
Bit rate : 95 b/s
Frame rate : 0.352 FPS
Count of elements : 1657
Stream size : 54.8 KiB (0%)
Language : Swedish
Default : No
Forced : No

Text #3
ID : 5
Format : UTF-8
Codec ID : S_TEXT/UTF8
Codec ID/Info : UTF-8 Plain Text
Duration : 1 h 18 min
Bit rate : 89 b/s
Frame rate : 0.309 FPS
Count of elements : 1455
Stream size : 51.6 KiB (0%)
Language : Norwegian
Default : No
Forced : No

Text #4
ID : 6
Format : UTF-8
Codec ID : S_TEXT/UTF8
Codec ID/Info : UTF-8 Plain Text
Duration : 1 h 18 min
Bit rate : 97 b/s
Frame rate : 0.286 FPS
Count of elements : 1348
Stream size : 56.2 KiB (0%)
Language : German
Default : No
Forced : No

Text #5
ID : 7
Format : UTF-8
Codec ID : S_TEXT/UTF8
Codec ID/Info : UTF-8 Plain Text
Duration : 1 h 18 min
Bit rate : 90 b/s
Frame rate : 0.264 FPS
Count of elements : 1242
Stream size : 52.1 KiB (0%)
Language : Finnish
Default : No
Forced : No

[collapse]
Download Link(s)

Download

Direct download files get automatically deleted after a month or so. Posted on : 12/27/2023

[collapse]
Magnet Link

Magnet

Ricky.Gervais.Humanity.2018.1080p.WEB.x264-AMRAP-3.40 GB

[collapse]

You may also like...

error: nah :p~