Return to Sender (2015)

Not Rated | 1h 32min | Drama, Thriller

A nurse living in small town goes on a blind date with a man who is not the person he says he is.

Watch trailer

Media information

General
Format : Matroska
Format version : Version 4
File size : 748 MiB
Duration : 1 h 35 min
Overall bit rate : 1 090 kb/s
Movie name : Return.to.Sender.2015.720p.10bit.BluRay.6CH.x265.HEVC

Video
ID : 1
Format : HEVC
Format/Info : High Efficiency Video Coding
Format profile : Main [email protected]@Main
Codec ID : V_MPEGH/ISO/HEVC
Duration : 1 h 35 min
Bit rate : 895 kb/s
Width : 1 280 pixels
Height : 688 pixels
Display aspect ratio : 1.85:1
Frame rate mode : Variable
Frame rate : 23.976 FPS
Color space : YUV
Chroma subsampling : 4:2:0 (Type 0)
Bit depth : 10 bits
Bits/(Pixel*Frame) : 0.042
Stream size : 614 MiB (82%)
Default : Yes
Forced : No
Color range : Limited
Matrix coefficients : BT.709

Audio
ID : 2
Format : AAC LC
Codec ID : A_AAC-2
Duration : 1 h 35 min
Bit rate : 192 kb/s
Channel(s) : 6 channels
Channel layout : L R C Cb Lb Rb
Sampling rate : 48.0 kHz
Frame rate : 46.875 FPS (1024 SPF)
Compression mode : Lossy
Stream size : 132 MiB (18%)
Language : English
Default : Yes
Forced : No

[collapse]
Download Link(s)

Download

Direct download files get automatically deleted after a month or so. Posted on : 09/25/2021

[collapse]
Magnet Link

Magnet

Return.to.Sender.2015.1080p.BluRay.x264.DTS-FGT-8.24 GB

[collapse]

You may also like...

error: nah :p~