Rebel Moon – Part Two: The Scargiver (2024)

PG-13 | 2h 2min | Action, Adventure, Drama

Kora and surviving warriors prepare to defend Veldt, their new home, alongside its people against the Realm. The warriors face their pasts, revealing their motivations before the Realm’s forces arrive to crush the growing rebellion.

Watch trailer

Media information

General
Format : Matroska
Format version : Version 4
File size : 3.00 GiB
Duration : 2 h 3 min
Overall bit rate : 3 470 kb/s
Frame rate : 24.000 FPS
Movie name : Rebel.Moon.Part.Two.The.Scargiver.2024.2160p.10bit.HDR.DV.WEBRip.6CH.x265.HEVC

Video
ID : 1
Format : HEVC
Format/Info : High Efficiency Video Coding
Format profile : Main 10@L5@Main
HDR format : Dolby Vision, Version 1.0, Profile 8.1, dvhe.08.06, BL+RPU, no metadata compression, HDR10 compatible / SMPTE ST 2086, Version HDR10, HDR10 compatible
Codec ID : V_MPEGH/ISO/HEVC
Duration : 2 h 3 min
Bit rate : 3 263 kb/s
Width : 3 840 pixels
Height : 1 600 pixels
Display aspect ratio : 2.40:1
Frame rate mode : Constant
Frame rate : 24.000 FPS
Color space : YUV
Chroma subsampling : 4:2:0 (Type 2)
Bit depth : 10 bits
Bits/(Pixel*Frame) : 0.022
Stream size : 2.82 GiB (94%)
Default : Yes
Forced : No
Color range : Limited
Color primaries : BT.2020
Transfer characteristics : PQ
Matrix coefficients : BT.2020 non-constant
Mastering display color primaries : Display P3
Mastering display luminance : min: 0.0001 cd/m2, max: 1000 cd/m2
Maximum Content Light Level : 405 cd/m2
Maximum Frame-Average Light Level : 367 cd/m2

Audio
ID : 2
Format : AAC LC SBR
Commercial name : HE-AAC
Format settings : Explicit
Codec ID : A_AAC-2
Duration : 2 h 3 min
Bit rate : 203 kb/s
Channel(s) : 6 channels
Channel layout : C L R Ls Rs LFE
Sampling rate : 48.0 kHz
Frame rate : 23.438 FPS (2048 SPF)
Compression mode : Lossy
Delay relative to video : 23 ms
Stream size : 180 MiB (6%)
Language : English
Default : Yes
Forced : No

Text #1
ID : 3
Format : UTF-8
Codec ID : S_TEXT/UTF8
Codec ID/Info : UTF-8 Plain Text
Duration : 1 h 51 min
Bit rate : 34 b/s
Frame rate : 0.136 FPS
Count of elements : 910
Stream size : 28.4 KiB (0%)
Language : English
Default : No
Forced : No

Text #2
ID : 4
Format : UTF-8
Codec ID : S_TEXT/UTF8
Codec ID/Info : UTF-8 Plain Text
Duration : 1 h 59 min
Bit rate : 45 b/s
Frame rate : 0.191 FPS
Count of elements : 1378
Stream size : 39.7 KiB (0%)
Title : SDH
Language : English
Default : Yes
Forced : No

Text #3
ID : 5
Format : UTF-8
Codec ID : S_TEXT/UTF8
Codec ID/Info : UTF-8 Plain Text
Duration : 2 h 0 min
Bit rate : 49 b/s
Frame rate : 0.119 FPS
Count of elements : 862
Stream size : 44.2 KiB (0%)
Language : Arabic
Default : No
Forced : No

Text #4
ID : 6
Format : UTF-8
Codec ID : S_TEXT/UTF8
Codec ID/Info : UTF-8 Plain Text
Duration : 2 h 0 min
Bit rate : 28 b/s
Frame rate : 0.118 FPS
Count of elements : 856
Stream size : 24.8 KiB (0%)
Language : Catalan
Default : No
Forced : No

Text #5
ID : 7
Format : UTF-8
Codec ID : S_TEXT/UTF8
Codec ID/Info : UTF-8 Plain Text
Duration : 2 h 0 min
Bit rate : 27 b/s
Frame rate : 0.117 FPS
Count of elements : 850
Stream size : 24.4 KiB (0%)
Language : Czech
Default : No
Forced : No

Text #6
ID : 8
Format : UTF-8
Codec ID : S_TEXT/UTF8
Codec ID/Info : UTF-8 Plain Text
Duration : 2 h 0 min
Bit rate : 28 b/s
Frame rate : 0.114 FPS
Count of elements : 829
Stream size : 24.9 KiB (0%)
Language : Danish
Default : No
Forced : No

Text #7
ID : 9
Format : UTF-8
Codec ID : S_TEXT/UTF8
Codec ID/Info : UTF-8 Plain Text
Duration : 2 h 0 min
Bit rate : 29 b/s
Frame rate : 0.115 FPS
Count of elements : 831
Stream size : 26.4 KiB (0%)
Language : German
Default : No
Forced : No

Text #8
ID : 10
Format : UTF-8
Codec ID : S_TEXT/UTF8
Codec ID/Info : UTF-8 Plain Text
Duration : 2 h 0 min
Bit rate : 50 b/s
Frame rate : 0.118 FPS
Count of elements : 852
Stream size : 44.9 KiB (0%)
Language : Greek
Default : No
Forced : No

Text #9
ID : 11
Format : UTF-8
Codec ID : S_TEXT/UTF8
Codec ID/Info : UTF-8 Plain Text
Duration : 2 h 0 min
Bit rate : 29 b/s
Frame rate : 0.117 FPS
Count of elements : 850
Stream size : 25.8 KiB (0%)
Title : Latin American
Language : Spanish (Latin America)
Default : No
Forced : No

Text #10
ID : 12
Format : UTF-8
Codec ID : S_TEXT/UTF8
Codec ID/Info : UTF-8 Plain Text
Duration : 2 h 0 min
Bit rate : 28 b/s
Frame rate : 0.120 FPS
Count of elements : 869
Stream size : 25.1 KiB (0%)
Language : Spanish (ES)
Default : No
Forced : No

Text #11
ID : 13
Format : UTF-8
Codec ID : S_TEXT/UTF8
Codec ID/Info : UTF-8 Plain Text
Duration : 2 h 0 min
Bit rate : 29 b/s
Frame rate : 0.117 FPS
Count of elements : 844
Stream size : 25.8 KiB (0%)
Language : Basque
Default : No
Forced : No

Text #12
ID : 14
Format : UTF-8
Codec ID : S_TEXT/UTF8
Codec ID/Info : UTF-8 Plain Text
Duration : 2 h 0 min
Bit rate : 28 b/s
Frame rate : 0.109 FPS
Count of elements : 793
Stream size : 25.5 KiB (0%)
Language : Finnish
Default : No
Forced : No

Text #13
ID : 15
Format : UTF-8
Codec ID : S_TEXT/UTF8
Codec ID/Info : UTF-8 Plain Text
Duration : 2 h 0 min
Bit rate : 32 b/s
Frame rate : 0.118 FPS
Count of elements : 855
Stream size : 28.3 KiB (0%)
Language : Filipino
Default : No
Forced : No

Text #14
ID : 16
Format : UTF-8
Codec ID : S_TEXT/UTF8
Codec ID/Info : UTF-8 Plain Text
Duration : 2 h 0 min
Bit rate : 30 b/s
Frame rate : 0.121 FPS
Count of elements : 877
Stream size : 27.2 KiB (0%)
Language : French
Default : No
Forced : No

Text #15
ID : 17
Format : UTF-8
Codec ID : S_TEXT/UTF8
Codec ID/Info : UTF-8 Plain Text
Duration : 2 h 0 min
Bit rate : 27 b/s
Frame rate : 0.118 FPS
Count of elements : 858
Stream size : 24.6 KiB (0%)
Language : Galician
Default : No
Forced : No

Text #16
ID : 18
Format : UTF-8
Codec ID : S_TEXT/UTF8
Codec ID/Info : UTF-8 Plain Text
Duration : 2 h 0 min
Bit rate : 44 b/s
Frame rate : 0.118 FPS
Count of elements : 852
Stream size : 39.8 KiB (0%)
Language : Hebrew
Default : No
Forced : No

Text #17
ID : 19
Format : UTF-8
Codec ID : S_TEXT/UTF8
Codec ID/Info : UTF-8 Plain Text
Duration : 2 h 0 min
Bit rate : 27 b/s
Frame rate : 0.118 FPS
Count of elements : 852
Stream size : 24.3 KiB (0%)
Language : Croatian
Default : No
Forced : No

Text #18
ID : 20
Format : UTF-8
Codec ID : S_TEXT/UTF8
Codec ID/Info : UTF-8 Plain Text
Duration : 2 h 0 min
Bit rate : 29 b/s
Frame rate : 0.115 FPS
Count of elements : 834
Stream size : 26.1 KiB (0%)
Language : Hungarian
Default : No
Forced : No

Text #19
ID : 21
Format : UTF-8
Codec ID : S_TEXT/UTF8
Codec ID/Info : UTF-8 Plain Text
Duration : 2 h 0 min
Bit rate : 29 b/s
Frame rate : 0.118 FPS
Count of elements : 854
Stream size : 25.9 KiB (0%)
Language : Indonesian
Default : No
Forced : No

Text #20
ID : 22
Format : UTF-8
Codec ID : S_TEXT/UTF8
Codec ID/Info : UTF-8 Plain Text
Duration : 2 h 0 min
Bit rate : 29 b/s
Frame rate : 0.117 FPS
Count of elements : 847
Stream size : 26.0 KiB (0%)
Language : Italian
Default : No
Forced : No

Text #21
ID : 23
Format : UTF-8
Codec ID : S_TEXT/UTF8
Codec ID/Info : UTF-8 Plain Text
Duration : 2 h 0 min
Bit rate : 23 b/s
Frame rate : 0.111 FPS
Count of elements : 802
Stream size : 20.9 KiB (0%)
Language : Japanese
Default : No
Forced : No

Text #22
ID : 24
Format : UTF-8
Codec ID : S_TEXT/UTF8
Codec ID/Info : UTF-8 Plain Text
Duration : 2 h 0 min
Bit rate : 33 b/s
Frame rate : 0.124 FPS
Count of elements : 900
Stream size : 29.2 KiB (0%)
Language : Korean
Default : No
Forced : No

Text #23
ID : 25
Format : UTF-8
Codec ID : S_TEXT/UTF8
Codec ID/Info : UTF-8 Plain Text
Duration : 2 h 0 min
Bit rate : 29 b/s
Frame rate : 0.118 FPS
Count of elements : 854
Stream size : 26.0 KiB (0%)
Language : Malay
Default : No
Forced : No

Text #24
ID : 26
Format : UTF-8
Codec ID : S_TEXT/UTF8
Codec ID/Info : UTF-8 Plain Text
Duration : 2 h 0 min
Bit rate : 28 b/s
Frame rate : 0.109 FPS
Count of elements : 791
Stream size : 25.5 KiB (0%)
Language : Norwegian Bokmal
Default : No
Forced : No

Text #25
ID : 27
Format : UTF-8
Codec ID : S_TEXT/UTF8
Codec ID/Info : UTF-8 Plain Text
Duration : 2 h 0 min
Bit rate : 26 b/s
Frame rate : 0.105 FPS
Count of elements : 758
Stream size : 23.7 KiB (0%)
Language : Dutch
Default : No
Forced : No

Text #26
ID : 28
Format : UTF-8
Codec ID : S_TEXT/UTF8
Codec ID/Info : UTF-8 Plain Text
Duration : 2 h 0 min
Bit rate : 27 b/s
Frame rate : 0.116 FPS
Count of elements : 842
Stream size : 24.5 KiB (0%)
Language : Polish
Default : No
Forced : No

Text #27
ID : 29
Format : UTF-8
Codec ID : S_TEXT/UTF8
Codec ID/Info : UTF-8 Plain Text
Duration : 2 h 0 min
Bit rate : 28 b/s
Frame rate : 0.117 FPS
Count of elements : 849
Stream size : 24.8 KiB (0%)
Title : Brazilian
Language : Portuguese (BR)
Default : No
Forced : No

Text #28
ID : 30
Format : UTF-8
Codec ID : S_TEXT/UTF8
Codec ID/Info : UTF-8 Plain Text
Duration : 2 h 0 min
Bit rate : 30 b/s
Frame rate : 0.118 FPS
Count of elements : 855
Stream size : 26.6 KiB (0%)
Language : Portuguese (PT)
Default : No
Forced : No

Text #29
ID : 31
Format : UTF-8
Codec ID : S_TEXT/UTF8
Codec ID/Info : UTF-8 Plain Text
Duration : 2 h 0 min
Bit rate : 29 b/s
Frame rate : 0.116 FPS
Count of elements : 839
Stream size : 26.3 KiB (0%)
Language : Romanian
Default : No
Forced : No

Text #30
ID : 32
Format : UTF-8
Codec ID : S_TEXT/UTF8
Codec ID/Info : UTF-8 Plain Text
Duration : 2 h 0 min
Bit rate : 47 b/s
Frame rate : 0.118 FPS
Count of elements : 857
Stream size : 41.8 KiB (0%)
Language : Russian
Default : No
Forced : No

Text #31
ID : 33
Format : UTF-8
Codec ID : S_TEXT/UTF8
Codec ID/Info : UTF-8 Plain Text
Duration : 2 h 0 min
Bit rate : 28 b/s
Frame rate : 0.115 FPS
Count of elements : 830
Stream size : 25.6 KiB (0%)
Language : Swedish
Default : No
Forced : No

Text #32
ID : 34
Format : UTF-8
Codec ID : S_TEXT/UTF8
Codec ID/Info : UTF-8 Plain Text
Duration : 2 h 0 min
Bit rate : 72 b/s
Frame rate : 0.118 FPS
Count of elements : 858
Stream size : 64.0 KiB (0%)
Language : Thai
Default : No
Forced : No

Text #33
ID : 35
Format : UTF-8
Codec ID : S_TEXT/UTF8
Codec ID/Info : UTF-8 Plain Text
Duration : 2 h 0 min
Bit rate : 29 b/s
Frame rate : 0.109 FPS
Count of elements : 787
Stream size : 26.0 KiB (0%)
Language : Turkish
Default : No
Forced : No

Text #34
ID : 36
Format : UTF-8
Codec ID : S_TEXT/UTF8
Codec ID/Info : UTF-8 Plain Text
Duration : 2 h 0 min
Bit rate : 49 b/s
Frame rate : 0.117 FPS
Count of elements : 849
Stream size : 43.5 KiB (0%)
Language : Ukrainian
Default : No
Forced : No

Text #35
ID : 37
Format : UTF-8
Codec ID : S_TEXT/UTF8
Codec ID/Info : UTF-8 Plain Text
Duration : 2 h 0 min
Bit rate : 39 b/s
Frame rate : 0.118 FPS
Count of elements : 855
Stream size : 34.8 KiB (0%)
Language : Vietnamese
Default : No
Forced : No

Text #36
ID : 38
Format : UTF-8
Codec ID : S_TEXT/UTF8
Codec ID/Info : UTF-8 Plain Text
Duration : 2 h 0 min
Bit rate : 26 b/s
Frame rate : 0.118 FPS
Count of elements : 856
Stream size : 23.0 KiB (0%)
Title : Simplified
Language : Chinese (Simplified)
Default : No
Forced : No

Text #37
ID : 39
Format : UTF-8
Codec ID : S_TEXT/UTF8
Codec ID/Info : UTF-8 Plain Text
Duration : 2 h 0 min
Bit rate : 23 b/s
Frame rate : 0.129 FPS
Count of elements : 931
Stream size : 21.1 KiB (0%)
Title : Traditional
Language : Chinese (Traditional)
Default : No
Forced : No

[collapse]
Download Link(s)

Download

Direct download files get automatically deleted after a month or so. Posted on : 04/24/2024

[collapse]
Magnet Link

Magnet

Rebel.Moon.Part.Two.The.Scargiver.2024.2160p.NF.WEB.DL.DDP5.1.Atmos.DV.HDR.H.265.FLUX.TGx-11.1 GB

[collapse]

Media information

General
Format : Matroska
Format version : Version 4
File size : 1.75 GiB
Duration : 2 h 3 min
Overall bit rate : 2 027 kb/s
Frame rate : 24.000 FPS
Movie name : Rebel.Moon.Part.Two.The.Scargiver.2024.1080p.10bit.WEBRip.6CH.x265.HEVC

Video
ID : 1
Format : HEVC
Format/Info : High Efficiency Video Coding
Format profile : Main 10@L4@Main
Codec ID : V_MPEGH/ISO/HEVC
Duration : 2 h 3 min
Bit rate : 1 819 kb/s
Width : 1 920 pixels
Height : 800 pixels
Display aspect ratio : 2.40:1
Frame rate mode : Constant
Frame rate : 24.000 FPS
Color space : YUV
Chroma subsampling : 4:2:0
Bit depth : 10 bits
Bits/(Pixel*Frame) : 0.049
Stream size : 1.57 GiB (90%)
Default : Yes
Forced : No

Audio
ID : 2
Format : AAC LC SBR
Commercial name : HE-AAC
Format settings : Explicit
Codec ID : A_AAC-2
Duration : 2 h 3 min
Bit rate : 203 kb/s
Channel(s) : 6 channels
Channel layout : C L R Ls Rs LFE
Sampling rate : 48.0 kHz
Frame rate : 23.438 FPS (2048 SPF)
Compression mode : Lossy
Delay relative to video : 23 ms
Stream size : 180 MiB (10%)
Language : English
Default : Yes
Forced : No

Text #1
ID : 3
Format : UTF-8
Codec ID : S_TEXT/UTF8
Codec ID/Info : UTF-8 Plain Text
Duration : 1 h 51 min
Bit rate : 34 b/s
Frame rate : 0.136 FPS
Count of elements : 910
Stream size : 28.4 KiB (0%)
Language : English
Default : No
Forced : No

Text #2
ID : 4
Format : UTF-8
Codec ID : S_TEXT/UTF8
Codec ID/Info : UTF-8 Plain Text
Duration : 1 h 59 min
Bit rate : 45 b/s
Frame rate : 0.191 FPS
Count of elements : 1378
Stream size : 39.7 KiB (0%)
Title : SDH
Language : English
Default : Yes
Forced : No

Text #3
ID : 5
Format : UTF-8
Codec ID : S_TEXT/UTF8
Codec ID/Info : UTF-8 Plain Text
Duration : 2 h 0 min
Bit rate : 49 b/s
Frame rate : 0.119 FPS
Count of elements : 862
Stream size : 44.2 KiB (0%)
Language : Arabic
Default : No
Forced : No

Text #4
ID : 6
Format : UTF-8
Codec ID : S_TEXT/UTF8
Codec ID/Info : UTF-8 Plain Text
Duration : 2 h 0 min
Bit rate : 28 b/s
Frame rate : 0.118 FPS
Count of elements : 856
Stream size : 24.8 KiB (0%)
Language : Catalan
Default : No
Forced : No

Text #5
ID : 7
Format : UTF-8
Codec ID : S_TEXT/UTF8
Codec ID/Info : UTF-8 Plain Text
Duration : 2 h 0 min
Bit rate : 27 b/s
Frame rate : 0.117 FPS
Count of elements : 850
Stream size : 24.4 KiB (0%)
Language : Czech
Default : No
Forced : No

Text #6
ID : 8
Format : UTF-8
Codec ID : S_TEXT/UTF8
Codec ID/Info : UTF-8 Plain Text
Duration : 2 h 0 min
Bit rate : 28 b/s
Frame rate : 0.114 FPS
Count of elements : 829
Stream size : 24.9 KiB (0%)
Language : Danish
Default : No
Forced : No

Text #7
ID : 9
Format : UTF-8
Codec ID : S_TEXT/UTF8
Codec ID/Info : UTF-8 Plain Text
Duration : 2 h 0 min
Bit rate : 29 b/s
Frame rate : 0.115 FPS
Count of elements : 831
Stream size : 26.4 KiB (0%)
Language : German
Default : No
Forced : No

Text #8
ID : 10
Format : UTF-8
Codec ID : S_TEXT/UTF8
Codec ID/Info : UTF-8 Plain Text
Duration : 2 h 0 min
Bit rate : 50 b/s
Frame rate : 0.118 FPS
Count of elements : 852
Stream size : 44.9 KiB (0%)
Language : Greek
Default : No
Forced : No

Text #9
ID : 11
Format : UTF-8
Codec ID : S_TEXT/UTF8
Codec ID/Info : UTF-8 Plain Text
Duration : 2 h 0 min
Bit rate : 29 b/s
Frame rate : 0.117 FPS
Count of elements : 850
Stream size : 25.8 KiB (0%)
Title : Latin American
Language : Spanish (Latin America)
Default : No
Forced : No

Text #10
ID : 12
Format : UTF-8
Codec ID : S_TEXT/UTF8
Codec ID/Info : UTF-8 Plain Text
Duration : 2 h 0 min
Bit rate : 28 b/s
Frame rate : 0.120 FPS
Count of elements : 869
Stream size : 25.1 KiB (0%)
Language : Spanish (ES)
Default : No
Forced : No

Text #11
ID : 13
Format : UTF-8
Codec ID : S_TEXT/UTF8
Codec ID/Info : UTF-8 Plain Text
Duration : 2 h 0 min
Bit rate : 29 b/s
Frame rate : 0.117 FPS
Count of elements : 844
Stream size : 25.8 KiB (0%)
Language : Basque
Default : No
Forced : No

Text #12
ID : 14
Format : UTF-8
Codec ID : S_TEXT/UTF8
Codec ID/Info : UTF-8 Plain Text
Duration : 2 h 0 min
Bit rate : 28 b/s
Frame rate : 0.109 FPS
Count of elements : 793
Stream size : 25.5 KiB (0%)
Language : Finnish
Default : No
Forced : No

Text #13
ID : 15
Format : UTF-8
Codec ID : S_TEXT/UTF8
Codec ID/Info : UTF-8 Plain Text
Duration : 2 h 0 min
Bit rate : 32 b/s
Frame rate : 0.118 FPS
Count of elements : 855
Stream size : 28.3 KiB (0%)
Language : Filipino
Default : No
Forced : No

Text #14
ID : 16
Format : UTF-8
Codec ID : S_TEXT/UTF8
Codec ID/Info : UTF-8 Plain Text
Duration : 2 h 0 min
Bit rate : 30 b/s
Frame rate : 0.121 FPS
Count of elements : 877
Stream size : 27.2 KiB (0%)
Language : French
Default : No
Forced : No

Text #15
ID : 17
Format : UTF-8
Codec ID : S_TEXT/UTF8
Codec ID/Info : UTF-8 Plain Text
Duration : 2 h 0 min
Bit rate : 27 b/s
Frame rate : 0.118 FPS
Count of elements : 858
Stream size : 24.6 KiB (0%)
Language : Galician
Default : No
Forced : No

Text #16
ID : 18
Format : UTF-8
Codec ID : S_TEXT/UTF8
Codec ID/Info : UTF-8 Plain Text
Duration : 2 h 0 min
Bit rate : 44 b/s
Frame rate : 0.118 FPS
Count of elements : 852
Stream size : 39.8 KiB (0%)
Language : Hebrew
Default : No
Forced : No

Text #17
ID : 19
Format : UTF-8
Codec ID : S_TEXT/UTF8
Codec ID/Info : UTF-8 Plain Text
Duration : 2 h 0 min
Bit rate : 27 b/s
Frame rate : 0.118 FPS
Count of elements : 852
Stream size : 24.3 KiB (0%)
Language : Croatian
Default : No
Forced : No

Text #18
ID : 20
Format : UTF-8
Codec ID : S_TEXT/UTF8
Codec ID/Info : UTF-8 Plain Text
Duration : 2 h 0 min
Bit rate : 29 b/s
Frame rate : 0.115 FPS
Count of elements : 834
Stream size : 26.1 KiB (0%)
Language : Hungarian
Default : No
Forced : No

Text #19
ID : 21
Format : UTF-8
Codec ID : S_TEXT/UTF8
Codec ID/Info : UTF-8 Plain Text
Duration : 2 h 0 min
Bit rate : 29 b/s
Frame rate : 0.118 FPS
Count of elements : 854
Stream size : 25.9 KiB (0%)
Language : Indonesian
Default : No
Forced : No

Text #20
ID : 22
Format : UTF-8
Codec ID : S_TEXT/UTF8
Codec ID/Info : UTF-8 Plain Text
Duration : 2 h 0 min
Bit rate : 29 b/s
Frame rate : 0.117 FPS
Count of elements : 847
Stream size : 26.0 KiB (0%)
Language : Italian
Default : No
Forced : No

Text #21
ID : 23
Format : UTF-8
Codec ID : S_TEXT/UTF8
Codec ID/Info : UTF-8 Plain Text
Duration : 2 h 0 min
Bit rate : 23 b/s
Frame rate : 0.111 FPS
Count of elements : 802
Stream size : 20.9 KiB (0%)
Language : Japanese
Default : No
Forced : No

Text #22
ID : 24
Format : UTF-8
Codec ID : S_TEXT/UTF8
Codec ID/Info : UTF-8 Plain Text
Duration : 2 h 0 min
Bit rate : 33 b/s
Frame rate : 0.124 FPS
Count of elements : 900
Stream size : 29.2 KiB (0%)
Language : Korean
Default : No
Forced : No

Text #23
ID : 25
Format : UTF-8
Codec ID : S_TEXT/UTF8
Codec ID/Info : UTF-8 Plain Text
Duration : 2 h 0 min
Bit rate : 29 b/s
Frame rate : 0.118 FPS
Count of elements : 854
Stream size : 26.0 KiB (0%)
Language : Malay
Default : No
Forced : No

Text #24
ID : 26
Format : UTF-8
Codec ID : S_TEXT/UTF8
Codec ID/Info : UTF-8 Plain Text
Duration : 2 h 0 min
Bit rate : 28 b/s
Frame rate : 0.109 FPS
Count of elements : 791
Stream size : 25.5 KiB (0%)
Language : Norwegian Bokmal
Default : No
Forced : No

Text #25
ID : 27
Format : UTF-8
Codec ID : S_TEXT/UTF8
Codec ID/Info : UTF-8 Plain Text
Duration : 2 h 0 min
Bit rate : 26 b/s
Frame rate : 0.105 FPS
Count of elements : 758
Stream size : 23.7 KiB (0%)
Language : Dutch
Default : No
Forced : No

Text #26
ID : 28
Format : UTF-8
Codec ID : S_TEXT/UTF8
Codec ID/Info : UTF-8 Plain Text
Duration : 2 h 0 min
Bit rate : 27 b/s
Frame rate : 0.116 FPS
Count of elements : 842
Stream size : 24.5 KiB (0%)
Language : Polish
Default : No
Forced : No

Text #27
ID : 29
Format : UTF-8
Codec ID : S_TEXT/UTF8
Codec ID/Info : UTF-8 Plain Text
Duration : 2 h 0 min
Bit rate : 28 b/s
Frame rate : 0.117 FPS
Count of elements : 849
Stream size : 24.8 KiB (0%)
Title : Brazilian
Language : Portuguese (BR)
Default : No
Forced : No

Text #28
ID : 30
Format : UTF-8
Codec ID : S_TEXT/UTF8
Codec ID/Info : UTF-8 Plain Text
Duration : 2 h 0 min
Bit rate : 30 b/s
Frame rate : 0.118 FPS
Count of elements : 855
Stream size : 26.6 KiB (0%)
Language : Portuguese (PT)
Default : No
Forced : No

Text #29
ID : 31
Format : UTF-8
Codec ID : S_TEXT/UTF8
Codec ID/Info : UTF-8 Plain Text
Duration : 2 h 0 min
Bit rate : 29 b/s
Frame rate : 0.116 FPS
Count of elements : 839
Stream size : 26.3 KiB (0%)
Language : Romanian
Default : No
Forced : No

Text #30
ID : 32
Format : UTF-8
Codec ID : S_TEXT/UTF8
Codec ID/Info : UTF-8 Plain Text
Duration : 2 h 0 min
Bit rate : 47 b/s
Frame rate : 0.118 FPS
Count of elements : 857
Stream size : 41.8 KiB (0%)
Language : Russian
Default : No
Forced : No

Text #31
ID : 33
Format : UTF-8
Codec ID : S_TEXT/UTF8
Codec ID/Info : UTF-8 Plain Text
Duration : 2 h 0 min
Bit rate : 28 b/s
Frame rate : 0.115 FPS
Count of elements : 830
Stream size : 25.6 KiB (0%)
Language : Swedish
Default : No
Forced : No

Text #32
ID : 34
Format : UTF-8
Codec ID : S_TEXT/UTF8
Codec ID/Info : UTF-8 Plain Text
Duration : 2 h 0 min
Bit rate : 72 b/s
Frame rate : 0.118 FPS
Count of elements : 858
Stream size : 64.0 KiB (0%)
Language : Thai
Default : No
Forced : No

Text #33
ID : 35
Format : UTF-8
Codec ID : S_TEXT/UTF8
Codec ID/Info : UTF-8 Plain Text
Duration : 2 h 0 min
Bit rate : 29 b/s
Frame rate : 0.109 FPS
Count of elements : 787
Stream size : 26.0 KiB (0%)
Language : Turkish
Default : No
Forced : No

Text #34
ID : 36
Format : UTF-8
Codec ID : S_TEXT/UTF8
Codec ID/Info : UTF-8 Plain Text
Duration : 2 h 0 min
Bit rate : 49 b/s
Frame rate : 0.117 FPS
Count of elements : 849
Stream size : 43.5 KiB (0%)
Language : Ukrainian
Default : No
Forced : No

Text #35
ID : 37
Format : UTF-8
Codec ID : S_TEXT/UTF8
Codec ID/Info : UTF-8 Plain Text
Duration : 2 h 0 min
Bit rate : 39 b/s
Frame rate : 0.118 FPS
Count of elements : 855
Stream size : 34.8 KiB (0%)
Language : Vietnamese
Default : No
Forced : No

Text #36
ID : 38
Format : UTF-8
Codec ID : S_TEXT/UTF8
Codec ID/Info : UTF-8 Plain Text
Duration : 2 h 0 min
Bit rate : 26 b/s
Frame rate : 0.118 FPS
Count of elements : 856
Stream size : 23.0 KiB (0%)
Title : Simplified
Language : Chinese (Simplified)
Default : No
Forced : No

Text #37
ID : 39
Format : UTF-8
Codec ID : S_TEXT/UTF8
Codec ID/Info : UTF-8 Plain Text
Duration : 2 h 0 min
Bit rate : 23 b/s
Frame rate : 0.129 FPS
Count of elements : 931
Stream size : 21.1 KiB (0%)
Title : Traditional
Language : Chinese (Traditional)
Default : No
Forced : No

[collapse]
Download Link(s)

Download

Direct download files get automatically deleted after a month or so. Posted on : 04/19/2024

[collapse]
Magnet Link

Magnet

Rebel.Moon.Part.Two.The.Scargiver.2024.1080p.NF.WEB-DL.DDP5.1.Atmos.H.264-FLUX-4.86 GB

[collapse]

Media information

General
Format : Matroska
Format version : Version 4
File size : 934 MiB
Duration : 2 h 3 min
Overall bit rate : 1 054 kb/s
Frame rate : 24.000 FPS
Movie name : Rebel.Moon.Part.Two.The.Scargiver.2024.720p.10bit.WEBRip.6CH.x265.HEVC

Video
ID : 1
Format : HEVC
Format/Info : High Efficiency Video Coding
Format profile : Main [email protected]@Main
Codec ID : V_MPEGH/ISO/HEVC
Duration : 2 h 3 min
Bit rate : 847 kb/s
Width : 1 280 pixels
Height : 536 pixels
Display aspect ratio : 2.39:1
Frame rate mode : Constant
Frame rate : 24.000 FPS
Color space : YUV
Chroma subsampling : 4:2:0
Bit depth : 10 bits
Bits/(Pixel*Frame) : 0.051
Stream size : 750 MiB (80%)
Default : Yes
Forced : No

Audio
ID : 2
Format : AAC LC SBR
Commercial name : HE-AAC
Format settings : Explicit
Codec ID : A_AAC-2
Duration : 2 h 3 min
Bit rate : 203 kb/s
Channel(s) : 6 channels
Channel layout : C L R Ls Rs LFE
Sampling rate : 48.0 kHz
Frame rate : 23.438 FPS (2048 SPF)
Compression mode : Lossy
Delay relative to video : 23 ms
Stream size : 180 MiB (19%)
Language : English
Default : Yes
Forced : No

Text #1
ID : 3
Format : UTF-8
Codec ID : S_TEXT/UTF8
Codec ID/Info : UTF-8 Plain Text
Duration : 1 h 51 min
Bit rate : 34 b/s
Frame rate : 0.136 FPS
Count of elements : 910
Stream size : 28.4 KiB (0%)
Language : English
Default : No
Forced : No

Text #2
ID : 4
Format : UTF-8
Codec ID : S_TEXT/UTF8
Codec ID/Info : UTF-8 Plain Text
Duration : 1 h 59 min
Bit rate : 45 b/s
Frame rate : 0.191 FPS
Count of elements : 1378
Stream size : 39.7 KiB (0%)
Title : SDH
Language : English
Default : Yes
Forced : No

Text #3
ID : 5
Format : UTF-8
Codec ID : S_TEXT/UTF8
Codec ID/Info : UTF-8 Plain Text
Duration : 2 h 0 min
Bit rate : 49 b/s
Frame rate : 0.119 FPS
Count of elements : 862
Stream size : 44.2 KiB (0%)
Language : Arabic
Default : No
Forced : No

Text #4
ID : 6
Format : UTF-8
Codec ID : S_TEXT/UTF8
Codec ID/Info : UTF-8 Plain Text
Duration : 2 h 0 min
Bit rate : 28 b/s
Frame rate : 0.118 FPS
Count of elements : 856
Stream size : 24.8 KiB (0%)
Language : Catalan
Default : No
Forced : No

Text #5
ID : 7
Format : UTF-8
Codec ID : S_TEXT/UTF8
Codec ID/Info : UTF-8 Plain Text
Duration : 2 h 0 min
Bit rate : 27 b/s
Frame rate : 0.117 FPS
Count of elements : 850
Stream size : 24.4 KiB (0%)
Language : Czech
Default : No
Forced : No

Text #6
ID : 8
Format : UTF-8
Codec ID : S_TEXT/UTF8
Codec ID/Info : UTF-8 Plain Text
Duration : 2 h 0 min
Bit rate : 28 b/s
Frame rate : 0.114 FPS
Count of elements : 829
Stream size : 24.9 KiB (0%)
Language : Danish
Default : No
Forced : No

Text #7
ID : 9
Format : UTF-8
Codec ID : S_TEXT/UTF8
Codec ID/Info : UTF-8 Plain Text
Duration : 2 h 0 min
Bit rate : 29 b/s
Frame rate : 0.115 FPS
Count of elements : 831
Stream size : 26.4 KiB (0%)
Language : German
Default : No
Forced : No

Text #8
ID : 10
Format : UTF-8
Codec ID : S_TEXT/UTF8
Codec ID/Info : UTF-8 Plain Text
Duration : 2 h 0 min
Bit rate : 50 b/s
Frame rate : 0.118 FPS
Count of elements : 852
Stream size : 44.9 KiB (0%)
Language : Greek
Default : No
Forced : No

Text #9
ID : 11
Format : UTF-8
Codec ID : S_TEXT/UTF8
Codec ID/Info : UTF-8 Plain Text
Duration : 2 h 0 min
Bit rate : 29 b/s
Frame rate : 0.117 FPS
Count of elements : 850
Stream size : 25.8 KiB (0%)
Title : Latin American
Language : Spanish (Latin America)
Default : No
Forced : No

Text #10
ID : 12
Format : UTF-8
Codec ID : S_TEXT/UTF8
Codec ID/Info : UTF-8 Plain Text
Duration : 2 h 0 min
Bit rate : 28 b/s
Frame rate : 0.120 FPS
Count of elements : 869
Stream size : 25.1 KiB (0%)
Language : Spanish (ES)
Default : No
Forced : No

Text #11
ID : 13
Format : UTF-8
Codec ID : S_TEXT/UTF8
Codec ID/Info : UTF-8 Plain Text
Duration : 2 h 0 min
Bit rate : 29 b/s
Frame rate : 0.117 FPS
Count of elements : 844
Stream size : 25.8 KiB (0%)
Language : Basque
Default : No
Forced : No

Text #12
ID : 14
Format : UTF-8
Codec ID : S_TEXT/UTF8
Codec ID/Info : UTF-8 Plain Text
Duration : 2 h 0 min
Bit rate : 28 b/s
Frame rate : 0.109 FPS
Count of elements : 793
Stream size : 25.5 KiB (0%)
Language : Finnish
Default : No
Forced : No

Text #13
ID : 15
Format : UTF-8
Codec ID : S_TEXT/UTF8
Codec ID/Info : UTF-8 Plain Text
Duration : 2 h 0 min
Bit rate : 32 b/s
Frame rate : 0.118 FPS
Count of elements : 855
Stream size : 28.3 KiB (0%)
Language : Filipino
Default : No
Forced : No

Text #14
ID : 16
Format : UTF-8
Codec ID : S_TEXT/UTF8
Codec ID/Info : UTF-8 Plain Text
Duration : 2 h 0 min
Bit rate : 30 b/s
Frame rate : 0.121 FPS
Count of elements : 877
Stream size : 27.2 KiB (0%)
Language : French
Default : No
Forced : No

Text #15
ID : 17
Format : UTF-8
Codec ID : S_TEXT/UTF8
Codec ID/Info : UTF-8 Plain Text
Duration : 2 h 0 min
Bit rate : 27 b/s
Frame rate : 0.118 FPS
Count of elements : 858
Stream size : 24.6 KiB (0%)
Language : Galician
Default : No
Forced : No

Text #16
ID : 18
Format : UTF-8
Codec ID : S_TEXT/UTF8
Codec ID/Info : UTF-8 Plain Text
Duration : 2 h 0 min
Bit rate : 44 b/s
Frame rate : 0.118 FPS
Count of elements : 852
Stream size : 39.8 KiB (0%)
Language : Hebrew
Default : No
Forced : No

Text #17
ID : 19
Format : UTF-8
Codec ID : S_TEXT/UTF8
Codec ID/Info : UTF-8 Plain Text
Duration : 2 h 0 min
Bit rate : 27 b/s
Frame rate : 0.118 FPS
Count of elements : 852
Stream size : 24.3 KiB (0%)
Language : Croatian
Default : No
Forced : No

Text #18
ID : 20
Format : UTF-8
Codec ID : S_TEXT/UTF8
Codec ID/Info : UTF-8 Plain Text
Duration : 2 h 0 min
Bit rate : 29 b/s
Frame rate : 0.115 FPS
Count of elements : 834
Stream size : 26.1 KiB (0%)
Language : Hungarian
Default : No
Forced : No

Text #19
ID : 21
Format : UTF-8
Codec ID : S_TEXT/UTF8
Codec ID/Info : UTF-8 Plain Text
Duration : 2 h 0 min
Bit rate : 29 b/s
Frame rate : 0.118 FPS
Count of elements : 854
Stream size : 25.9 KiB (0%)
Language : Indonesian
Default : No
Forced : No

Text #20
ID : 22
Format : UTF-8
Codec ID : S_TEXT/UTF8
Codec ID/Info : UTF-8 Plain Text
Duration : 2 h 0 min
Bit rate : 29 b/s
Frame rate : 0.117 FPS
Count of elements : 847
Stream size : 26.0 KiB (0%)
Language : Italian
Default : No
Forced : No

Text #21
ID : 23
Format : UTF-8
Codec ID : S_TEXT/UTF8
Codec ID/Info : UTF-8 Plain Text
Duration : 2 h 0 min
Bit rate : 23 b/s
Frame rate : 0.111 FPS
Count of elements : 802
Stream size : 20.9 KiB (0%)
Language : Japanese
Default : No
Forced : No

Text #22
ID : 24
Format : UTF-8
Codec ID : S_TEXT/UTF8
Codec ID/Info : UTF-8 Plain Text
Duration : 2 h 0 min
Bit rate : 33 b/s
Frame rate : 0.124 FPS
Count of elements : 900
Stream size : 29.2 KiB (0%)
Language : Korean
Default : No
Forced : No

Text #23
ID : 25
Format : UTF-8
Codec ID : S_TEXT/UTF8
Codec ID/Info : UTF-8 Plain Text
Duration : 2 h 0 min
Bit rate : 29 b/s
Frame rate : 0.118 FPS
Count of elements : 854
Stream size : 26.0 KiB (0%)
Language : Malay
Default : No
Forced : No

Text #24
ID : 26
Format : UTF-8
Codec ID : S_TEXT/UTF8
Codec ID/Info : UTF-8 Plain Text
Duration : 2 h 0 min
Bit rate : 28 b/s
Frame rate : 0.109 FPS
Count of elements : 791
Stream size : 25.5 KiB (0%)
Language : Norwegian Bokmal
Default : No
Forced : No

Text #25
ID : 27
Format : UTF-8
Codec ID : S_TEXT/UTF8
Codec ID/Info : UTF-8 Plain Text
Duration : 2 h 0 min
Bit rate : 26 b/s
Frame rate : 0.105 FPS
Count of elements : 758
Stream size : 23.7 KiB (0%)
Language : Dutch
Default : No
Forced : No

Text #26
ID : 28
Format : UTF-8
Codec ID : S_TEXT/UTF8
Codec ID/Info : UTF-8 Plain Text
Duration : 2 h 0 min
Bit rate : 27 b/s
Frame rate : 0.116 FPS
Count of elements : 842
Stream size : 24.5 KiB (0%)
Language : Polish
Default : No
Forced : No

Text #27
ID : 29
Format : UTF-8
Codec ID : S_TEXT/UTF8
Codec ID/Info : UTF-8 Plain Text
Duration : 2 h 0 min
Bit rate : 28 b/s
Frame rate : 0.117 FPS
Count of elements : 849
Stream size : 24.8 KiB (0%)
Title : Brazilian
Language : Portuguese (BR)
Default : No
Forced : No

Text #28
ID : 30
Format : UTF-8
Codec ID : S_TEXT/UTF8
Codec ID/Info : UTF-8 Plain Text
Duration : 2 h 0 min
Bit rate : 30 b/s
Frame rate : 0.118 FPS
Count of elements : 855
Stream size : 26.6 KiB (0%)
Language : Portuguese (PT)
Default : No
Forced : No

Text #29
ID : 31
Format : UTF-8
Codec ID : S_TEXT/UTF8
Codec ID/Info : UTF-8 Plain Text
Duration : 2 h 0 min
Bit rate : 29 b/s
Frame rate : 0.116 FPS
Count of elements : 839
Stream size : 26.3 KiB (0%)
Language : Romanian
Default : No
Forced : No

Text #30
ID : 32
Format : UTF-8
Codec ID : S_TEXT/UTF8
Codec ID/Info : UTF-8 Plain Text
Duration : 2 h 0 min
Bit rate : 47 b/s
Frame rate : 0.118 FPS
Count of elements : 857
Stream size : 41.8 KiB (0%)
Language : Russian
Default : No
Forced : No

Text #31
ID : 33
Format : UTF-8
Codec ID : S_TEXT/UTF8
Codec ID/Info : UTF-8 Plain Text
Duration : 2 h 0 min
Bit rate : 28 b/s
Frame rate : 0.115 FPS
Count of elements : 830
Stream size : 25.6 KiB (0%)
Language : Swedish
Default : No
Forced : No

Text #32
ID : 34
Format : UTF-8
Codec ID : S_TEXT/UTF8
Codec ID/Info : UTF-8 Plain Text
Duration : 2 h 0 min
Bit rate : 72 b/s
Frame rate : 0.118 FPS
Count of elements : 858
Stream size : 64.0 KiB (0%)
Language : Thai
Default : No
Forced : No

Text #33
ID : 35
Format : UTF-8
Codec ID : S_TEXT/UTF8
Codec ID/Info : UTF-8 Plain Text
Duration : 2 h 0 min
Bit rate : 29 b/s
Frame rate : 0.109 FPS
Count of elements : 787
Stream size : 26.0 KiB (0%)
Language : Turkish
Default : No
Forced : No

Text #34
ID : 36
Format : UTF-8
Codec ID : S_TEXT/UTF8
Codec ID/Info : UTF-8 Plain Text
Duration : 2 h 0 min
Bit rate : 49 b/s
Frame rate : 0.117 FPS
Count of elements : 849
Stream size : 43.5 KiB (0%)
Language : Ukrainian
Default : No
Forced : No

Text #35
ID : 37
Format : UTF-8
Codec ID : S_TEXT/UTF8
Codec ID/Info : UTF-8 Plain Text
Duration : 2 h 0 min
Bit rate : 39 b/s
Frame rate : 0.118 FPS
Count of elements : 855
Stream size : 34.8 KiB (0%)
Language : Vietnamese
Default : No
Forced : No

Text #36
ID : 38
Format : UTF-8
Codec ID : S_TEXT/UTF8
Codec ID/Info : UTF-8 Plain Text
Duration : 2 h 0 min
Bit rate : 26 b/s
Frame rate : 0.118 FPS
Count of elements : 856
Stream size : 23.0 KiB (0%)
Title : Simplified
Language : Chinese (Simplified)
Default : No
Forced : No

Text #37
ID : 39
Format : UTF-8
Codec ID : S_TEXT/UTF8
Codec ID/Info : UTF-8 Plain Text
Duration : 2 h 0 min
Bit rate : 23 b/s
Frame rate : 0.129 FPS
Count of elements : 931
Stream size : 21.1 KiB (0%)
Title : Traditional
Language : Chinese (Traditional)
Default : No
Forced : No

[collapse]
Download Link(s)

Download

Direct download files get automatically deleted after a month or so. Posted on : 04/19/2024

[collapse]
Magnet Link

Magnet

Rebel.Moon.Part.Two.The.Scargiver.2024.1080p.NF.WEB-DL.DDP5.1.Atmos.H.264-FLUX-4.86 GB

[collapse]

You may also like...

error: nah :p~