Rebel Moon: Part One – A Child of Fire (2023)

Original title: Rebel Moon: A Child of Fire – Part One | PG-13 | 2h 13min | Action, Adventure, Drama

When a peaceful settlement on the edge of a distant moon finds itself threatened by the armies of a tyrannical ruling force, a mysterious stranger living among its villagers becomes their best hope for survival.

Watch trailer

Media information

General
Format : Matroska
Format version : Version 4
File size : 1.64 GiB
Duration : 2 h 15 min
Overall bit rate : 1 727 kb/s
Frame rate : 24.000 FPS
Movie name : Rebel.Moon.Part.One.A.Child.of.Fire.2023.1080p.10bit.WEBRip.6CH.x265.HEVC

Video
ID : 1
Format : HEVC
Format/Info : High Efficiency Video Coding
Format profile : Main 10@L4@Main
Codec ID : V_MPEGH/ISO/HEVC
Duration : 2 h 15 min
Bit rate : 1 515 kb/s
Width : 1 920 pixels
Height : 800 pixels
Display aspect ratio : 2.40:1
Frame rate mode : Constant
Frame rate : 24.000 FPS
Color space : YUV
Chroma subsampling : 4:2:0
Bit depth : 10 bits
Bits/(Pixel*Frame) : 0.041
Stream size : 1.44 GiB (88%)
Default : Yes
Forced : No

Audio
ID : 2
Format : AAC LC SBR
Commercial name : HE-AAC
Format settings : Explicit
Codec ID : A_AAC-2
Duration : 2 h 15 min
Bit rate : 207 kb/s
Channel(s) : 6 channels
Channel layout : C L R Ls Rs LFE
Sampling rate : 48.0 kHz
Frame rate : 23.438 FPS (2048 SPF)
Compression mode : Lossy
Delay relative to video : 23 ms
Stream size : 201 MiB (12%)
Language : English
Default : Yes
Forced : No

Text #1
ID : 3
Format : UTF-8
Codec ID : S_TEXT/UTF8
Codec ID/Info : UTF-8 Plain Text
Duration : 2 h 13 min
Bit rate : 48 b/s
Frame rate : 0.196 FPS
Count of elements : 1570
Stream size : 47.8 KiB (0%)
Title : English (SDH)
Language : English
Default : Yes
Forced : No

Text #2
ID : 4
Format : UTF-8
Codec ID : S_TEXT/UTF8
Codec ID/Info : UTF-8 Plain Text
Duration : 32 min 15 s
Bit rate : 2 b/s
Frame rate : 0.009 FPS
Count of elements : 17
Stream size : 521 Bytes (0%)
Title : English (forced)
Language : English
Default : No
Forced : Yes

Text #3
ID : 5
Format : UTF-8
Codec ID : S_TEXT/UTF8
Codec ID/Info : UTF-8 Plain Text
Duration : 2 h 12 min
Bit rate : 64 b/s
Frame rate : 0.145 FPS
Count of elements : 1158
Stream size : 63.1 KiB (0%)
Title : Arabic
Language : Arabic
Default : No
Forced : No

Text #4
ID : 6
Format : UTF-8
Codec ID : S_TEXT/UTF8
Codec ID/Info : UTF-8 Plain Text
Duration : 2 h 12 min
Bit rate : 34 b/s
Frame rate : 0.144 FPS
Count of elements : 1150
Stream size : 33.8 KiB (0%)
Title : Catalan
Language : Catalan
Default : No
Forced : No

Text #5
ID : 7
Format : UTF-8
Codec ID : S_TEXT/UTF8
Codec ID/Info : UTF-8 Plain Text
Duration : 2 h 12 min
Bit rate : 35 b/s
Frame rate : 0.143 FPS
Count of elements : 1141
Stream size : 34.2 KiB (0%)
Title : Czech
Language : Czech
Default : No
Forced : No

Text #6
ID : 8
Format : UTF-8
Codec ID : S_TEXT/UTF8
Codec ID/Info : UTF-8 Plain Text
Duration : 2 h 12 min
Bit rate : 34 b/s
Frame rate : 0.136 FPS
Count of elements : 1080
Stream size : 34.0 KiB (0%)
Title : Danish
Language : Danish
Default : No
Forced : No

Text #7
ID : 9
Format : UTF-8
Codec ID : S_TEXT/UTF8
Codec ID/Info : UTF-8 Plain Text
Duration : 2 h 12 min
Bit rate : 36 b/s
Frame rate : 0.138 FPS
Count of elements : 1100
Stream size : 35.4 KiB (0%)
Title : German
Language : German
Default : No
Forced : No

Text #8
ID : 10
Format : UTF-8
Codec ID : S_TEXT/UTF8
Codec ID/Info : UTF-8 Plain Text
Duration : 2 h 12 min
Bit rate : 62 b/s
Frame rate : 0.142 FPS
Count of elements : 1134
Stream size : 60.7 KiB (0%)
Title : Greek
Language : Greek
Default : No
Forced : No

Text #9
ID : 11
Format : UTF-8
Codec ID : S_TEXT/UTF8
Codec ID/Info : UTF-8 Plain Text
Duration : 2 h 12 min
Bit rate : 36 b/s
Frame rate : 0.144 FPS
Count of elements : 1146
Stream size : 35.4 KiB (0%)
Title : Spanish (Latin America)
Language : Spanish
Default : No
Forced : No

Text #10
ID : 12
Format : UTF-8
Codec ID : S_TEXT/UTF8
Codec ID/Info : UTF-8 Plain Text
Duration : 2 h 12 min
Bit rate : 35 b/s
Frame rate : 0.141 FPS
Count of elements : 1127
Stream size : 34.5 KiB (0%)
Title : Spanish (Spain)
Language : Spanish
Default : No
Forced : No

Text #11
ID : 13
Format : UTF-8
Codec ID : S_TEXT/UTF8
Codec ID/Info : UTF-8 Plain Text
Duration : 2 h 12 min
Bit rate : 36 b/s
Frame rate : 0.142 FPS
Count of elements : 1129
Stream size : 35.1 KiB (0%)
Title : Basque
Language : Basque
Default : No
Forced : No

Text #12
ID : 14
Format : UTF-8
Codec ID : S_TEXT/UTF8
Codec ID/Info : UTF-8 Plain Text
Duration : 2 h 12 min
Bit rate : 35 b/s
Frame rate : 0.123 FPS
Count of elements : 978
Stream size : 34.9 KiB (0%)
Title : Finnish
Language : Finnish
Default : No
Forced : No

Text #13
ID : 15
Format : UTF-8
Codec ID : S_TEXT/UTF8
Codec ID/Info : UTF-8 Plain Text
Duration : 2 h 12 min
Bit rate : 35 b/s
Frame rate : 0.143 FPS
Count of elements : 1138
Stream size : 34.8 KiB (0%)
Title : Filipino
Language : Filipino
Default : No
Forced : No

Text #14
ID : 16
Format : UTF-8
Codec ID : S_TEXT/UTF8
Codec ID/Info : UTF-8 Plain Text
Duration : 2 h 12 min
Bit rate : 37 b/s
Frame rate : 0.150 FPS
Count of elements : 1192
Stream size : 36.1 KiB (0%)
Title : French
Language : French
Default : No
Forced : No

Text #15
ID : 17
Format : UTF-8
Codec ID : S_TEXT/UTF8
Codec ID/Info : UTF-8 Plain Text
Duration : 2 h 12 min
Bit rate : 34 b/s
Frame rate : 0.144 FPS
Count of elements : 1148
Stream size : 33.8 KiB (0%)
Title : Galician
Language : Galician
Default : No
Forced : No

Text #16
ID : 18
Format : UTF-8
Codec ID : S_TEXT/UTF8
Codec ID/Info : UTF-8 Plain Text
Duration : 2 h 12 min
Bit rate : 59 b/s
Frame rate : 0.144 FPS
Count of elements : 1150
Stream size : 57.9 KiB (0%)
Title : Hebrew
Language : Hebrew
Default : No
Forced : No

Text #17
ID : 19
Format : UTF-8
Codec ID : S_TEXT/UTF8
Codec ID/Info : UTF-8 Plain Text
Duration : 2 h 12 min
Bit rate : 33 b/s
Frame rate : 0.143 FPS
Count of elements : 1141
Stream size : 33.0 KiB (0%)
Title : Croatian
Language : Croatian
Default : No
Forced : No

Text #18
ID : 20
Format : UTF-8
Codec ID : S_TEXT/UTF8
Codec ID/Info : UTF-8 Plain Text
Duration : 2 h 12 min
Bit rate : 36 b/s
Frame rate : 0.141 FPS
Count of elements : 1124
Stream size : 35.7 KiB (0%)
Title : Hungarian
Language : Hungarian
Default : No
Forced : No

Text #19
ID : 21
Format : UTF-8
Codec ID : S_TEXT/UTF8
Codec ID/Info : UTF-8 Plain Text
Duration : 2 h 12 min
Bit rate : 34 b/s
Frame rate : 0.144 FPS
Count of elements : 1146
Stream size : 33.9 KiB (0%)
Title : Indonesian
Language : Indonesian
Default : No
Forced : No

Text #20
ID : 22
Format : UTF-8
Codec ID : S_TEXT/UTF8
Codec ID/Info : UTF-8 Plain Text
Duration : 2 h 12 min
Bit rate : 36 b/s
Frame rate : 0.140 FPS
Count of elements : 1113
Stream size : 35.4 KiB (0%)
Title : Italian
Language : Italian
Default : No
Forced : No

Text #21
ID : 23
Format : UTF-8
Codec ID : S_TEXT/UTF8
Codec ID/Info : UTF-8 Plain Text
Duration : 2 h 12 min
Bit rate : 31 b/s
Frame rate : 0.132 FPS
Count of elements : 1051
Stream size : 30.5 KiB (0%)
Title : Japanese
Language : Japanese
Default : No
Forced : No

Text #22
ID : 24
Format : UTF-8
Codec ID : S_TEXT/UTF8
Codec ID/Info : UTF-8 Plain Text
Duration : 2 h 12 min
Bit rate : 43 b/s
Frame rate : 0.158 FPS
Count of elements : 1257
Stream size : 42.0 KiB (0%)
Title : Korean
Language : Korean
Default : No
Forced : No

Text #23
ID : 25
Format : UTF-8
Codec ID : S_TEXT/UTF8
Codec ID/Info : UTF-8 Plain Text
Duration : 2 h 12 min
Bit rate : 34 b/s
Frame rate : 0.144 FPS
Count of elements : 1148
Stream size : 33.9 KiB (0%)
Title : Malay
Language : Malay
Default : No
Forced : No

Text #24
ID : 26
Format : UTF-8
Codec ID : S_TEXT/UTF8
Codec ID/Info : UTF-8 Plain Text
Duration : 2 h 12 min
Bit rate : 34 b/s
Frame rate : 0.138 FPS
Count of elements : 1097
Stream size : 33.9 KiB (0%)
Title : Norwegian
Language : Norwegian Bokmal
Default : No
Forced : No

Text #25
ID : 27
Format : UTF-8
Codec ID : S_TEXT/UTF8
Codec ID/Info : UTF-8 Plain Text
Duration : 2 h 12 min
Bit rate : 33 b/s
Frame rate : 0.120 FPS
Count of elements : 953
Stream size : 33.0 KiB (0%)
Title : Dutch
Language : Dutch
Default : No
Forced : No

Text #26
ID : 28
Format : UTF-8
Codec ID : S_TEXT/UTF8
Codec ID/Info : UTF-8 Plain Text
Duration : 2 h 12 min
Bit rate : 33 b/s
Frame rate : 0.141 FPS
Count of elements : 1120
Stream size : 32.8 KiB (0%)
Title : Polish
Language : Polish
Default : No
Forced : No

Text #27
ID : 29
Format : UTF-8
Codec ID : S_TEXT/UTF8
Codec ID/Info : UTF-8 Plain Text
Duration : 2 h 12 min
Bit rate : 36 b/s
Frame rate : 0.144 FPS
Count of elements : 1151
Stream size : 35.5 KiB (0%)
Title : Portuguese (Portugal)
Language : Portuguese
Default : No
Forced : No

Text #28
ID : 30
Format : UTF-8
Codec ID : S_TEXT/UTF8
Codec ID/Info : UTF-8 Plain Text
Duration : 2 h 12 min
Bit rate : 34 b/s
Frame rate : 0.140 FPS
Count of elements : 1117
Stream size : 33.6 KiB (0%)
Title : Portuguese (Brazil)
Language : Portuguese
Default : No
Forced : No

Text #29
ID : 31
Format : UTF-8
Codec ID : S_TEXT/UTF8
Codec ID/Info : UTF-8 Plain Text
Duration : 2 h 12 min
Bit rate : 35 b/s
Frame rate : 0.140 FPS
Count of elements : 1113
Stream size : 34.6 KiB (0%)
Title : Romanian
Language : Romanian
Default : No
Forced : No

Text #30
ID : 32
Format : UTF-8
Codec ID : S_TEXT/UTF8
Codec ID/Info : UTF-8 Plain Text
Duration : 2 h 12 min
Bit rate : 59 b/s
Frame rate : 0.142 FPS
Count of elements : 1135
Stream size : 57.6 KiB (0%)
Title : Russian
Language : Russian
Default : No
Forced : No

Text #31
ID : 33
Format : UTF-8
Codec ID : S_TEXT/UTF8
Codec ID/Info : UTF-8 Plain Text
Duration : 2 h 12 min
Bit rate : 36 b/s
Frame rate : 0.138 FPS
Count of elements : 1096
Stream size : 35.2 KiB (0%)
Title : Swedish
Language : Swedish
Default : No
Forced : No

Text #32
ID : 34
Format : UTF-8
Codec ID : S_TEXT/UTF8
Codec ID/Info : UTF-8 Plain Text
Duration : 2 h 12 min
Bit rate : 95 b/s
Frame rate : 0.145 FPS
Count of elements : 1153
Stream size : 92.9 KiB (0%)
Title : Thai
Language : Thai
Default : No
Forced : No

Text #33
ID : 35
Format : UTF-8
Codec ID : S_TEXT/UTF8
Codec ID/Info : UTF-8 Plain Text
Duration : 2 h 12 min
Bit rate : 36 b/s
Frame rate : 0.144 FPS
Count of elements : 1145
Stream size : 35.3 KiB (0%)
Title : Turkish
Language : Turkish
Default : No
Forced : No

Text #34
ID : 36
Format : UTF-8
Codec ID : S_TEXT/UTF8
Codec ID/Info : UTF-8 Plain Text
Duration : 2 h 12 min
Bit rate : 60 b/s
Frame rate : 0.144 FPS
Count of elements : 1148
Stream size : 59.2 KiB (0%)
Title : Ukrainian
Language : Ukrainian
Default : No
Forced : No

Text #35
ID : 37
Format : UTF-8
Codec ID : S_TEXT/UTF8
Codec ID/Info : UTF-8 Plain Text
Duration : 2 h 12 min
Bit rate : 49 b/s
Frame rate : 0.144 FPS
Count of elements : 1146
Stream size : 48.3 KiB (0%)
Title : Vietnamese
Language : Vietnamese
Default : No
Forced : No

Text #36
ID : 38
Format : UTF-8
Codec ID : S_TEXT/UTF8
Codec ID/Info : UTF-8 Plain Text
Duration : 2 h 12 min
Bit rate : 34 b/s
Frame rate : 0.144 FPS
Count of elements : 1148
Stream size : 33.3 KiB (0%)
Title : Simplified Chinese
Language : Chinese
Default : No
Forced : No

Text #37
ID : 39
Format : UTF-8
Codec ID : S_TEXT/UTF8
Codec ID/Info : UTF-8 Plain Text
Duration : 2 h 12 min
Bit rate : 32 b/s
Frame rate : 0.144 FPS
Count of elements : 1150
Stream size : 31.8 KiB (0%)
Title : Traditional Chinese
Language : Chinese
Default : No
Forced : No

Text #38
ID : 40
Format : UTF-8
Codec ID : S_TEXT/UTF8
Codec ID/Info : UTF-8 Plain Text
Duration : 2 h 13 min
Bit rate : 45 b/s
Frame rate : 0.187 FPS
Count of elements : 1492
Stream size : 44.7 KiB (0%)
Title : Czech (SDH)
Language : Czech
Default : No
Forced : No

Text #39
ID : 41
Format : UTF-8
Codec ID : S_TEXT/UTF8
Codec ID/Info : UTF-8 Plain Text
Duration : 2 h 13 min
Bit rate : 59 b/s
Frame rate : 0.215 FPS
Count of elements : 1716
Stream size : 58.0 KiB (0%)
Title : German (SDH)
Language : German
Default : No
Forced : No

Text #40
ID : 42
Format : UTF-8
Codec ID : S_TEXT/UTF8
Codec ID/Info : UTF-8 Plain Text
Duration : 2 h 13 min
Bit rate : 52 b/s
Frame rate : 0.208 FPS
Count of elements : 1659
Stream size : 51.5 KiB (0%)
Title : Spanish (Spain) (SDH)
Language : Spanish
Default : No
Forced : No

Text #41
ID : 43
Format : UTF-8
Codec ID : S_TEXT/UTF8
Codec ID/Info : UTF-8 Plain Text
Duration : 2 h 6 min
Bit rate : 47 b/s
Frame rate : 0.181 FPS
Count of elements : 1365
Stream size : 43.9 KiB (0%)
Title : Spanish (Latin America) (SDH)
Language : Spanish
Default : No
Forced : No

Text #42
ID : 44
Format : UTF-8
Codec ID : S_TEXT/UTF8
Codec ID/Info : UTF-8 Plain Text
Duration : 2 h 13 min
Bit rate : 55 b/s
Frame rate : 0.212 FPS
Count of elements : 1698
Stream size : 54.3 KiB (0%)
Title : French (SDH)
Language : French
Default : No
Forced : No

Text #43
ID : 45
Format : UTF-8
Codec ID : S_TEXT/UTF8
Codec ID/Info : UTF-8 Plain Text
Duration : 2 h 4 min
Bit rate : 47 b/s
Frame rate : 0.203 FPS
Count of elements : 1507
Stream size : 43.0 KiB (0%)
Title : Hungarian (SDH)
Language : Hungarian
Default : No
Forced : No

Text #44
ID : 46
Format : UTF-8
Codec ID : S_TEXT/UTF8
Codec ID/Info : UTF-8 Plain Text
Duration : 2 h 11 min
Bit rate : 44 b/s
Frame rate : 0.178 FPS
Count of elements : 1405
Stream size : 43.1 KiB (0%)
Title : Indonesian (SDH)
Language : Indonesian
Default : No
Forced : No

Text #45
ID : 47
Format : UTF-8
Codec ID : S_TEXT/UTF8
Codec ID/Info : UTF-8 Plain Text
Duration : 2 h 13 min
Bit rate : 52 b/s
Frame rate : 0.207 FPS
Count of elements : 1655
Stream size : 51.5 KiB (0%)
Title : Italian (SDH)
Language : Italian
Default : No
Forced : No

Text #46
ID : 48
Format : UTF-8
Codec ID : S_TEXT/UTF8
Codec ID/Info : UTF-8 Plain Text
Duration : 2 h 13 min
Bit rate : 51 b/s
Frame rate : 0.207 FPS
Count of elements : 1656
Stream size : 50.5 KiB (0%)
Title : Portuguese (Brazil) (SDH)
Language : Portuguese
Default : No
Forced : No

Text #47
ID : 49
Format : UTF-8
Codec ID : S_TEXT/UTF8
Codec ID/Info : UTF-8 Plain Text
Duration : 2 h 13 min
Bit rate : 54 b/s
Frame rate : 0.201 FPS
Count of elements : 1609
Stream size : 52.9 KiB (0%)
Title : Turkish (SDH)
Language : Turkish
Default : No
Forced : No

[collapse]
Download Link(s)

Download

Direct download files get automatically deleted after a month or so. Posted on : 12/22/2023

[collapse]
Magnet Link

Magnet

Rebel.Moon.Part.One.A.Child.of.Fire.2023.1080p.WEB.H264-AccomplishedYak.TGx-5.37 GB

[collapse]

Media information

General
Format : Matroska
Format version : Version 4
File size : 869 MiB
Duration : 2 h 15 min
Overall bit rate : 894 kb/s
Frame rate : 24.000 FPS
Movie name : Rebel.Moon.Part.One.A.Child.of.Fire.2023.720p.10bit.WEBRip.6CH.x265.HEVC

Video
ID : 1
Format : HEVC
Format/Info : High Efficiency Video Coding
Format profile : Main [email protected]@Main
Codec ID : V_MPEGH/ISO/HEVC
Duration : 2 h 15 min
Bit rate : 681 kb/s
Width : 1 280 pixels
Height : 536 pixels
Display aspect ratio : 2.39:1
Frame rate mode : Constant
Frame rate : 24.000 FPS
Color space : YUV
Chroma subsampling : 4:2:0
Bit depth : 10 bits
Bits/(Pixel*Frame) : 0.041
Stream size : 662 MiB (76%)
Default : Yes
Forced : No

Audio
ID : 2
Format : AAC LC SBR
Commercial name : HE-AAC
Format settings : Explicit
Codec ID : A_AAC-2
Duration : 2 h 15 min
Bit rate : 207 kb/s
Channel(s) : 6 channels
Channel layout : C L R Ls Rs LFE
Sampling rate : 48.0 kHz
Frame rate : 23.438 FPS (2048 SPF)
Compression mode : Lossy
Delay relative to video : 23 ms
Stream size : 201 MiB (23%)
Language : English
Default : Yes
Forced : No

Text #1
ID : 3
Format : UTF-8
Codec ID : S_TEXT/UTF8
Codec ID/Info : UTF-8 Plain Text
Duration : 2 h 13 min
Bit rate : 48 b/s
Frame rate : 0.196 FPS
Count of elements : 1570
Stream size : 47.8 KiB (0%)
Title : English (SDH)
Language : English
Default : Yes
Forced : No

Text #2
ID : 4
Format : UTF-8
Codec ID : S_TEXT/UTF8
Codec ID/Info : UTF-8 Plain Text
Duration : 32 min 15 s
Bit rate : 2 b/s
Frame rate : 0.009 FPS
Count of elements : 17
Stream size : 521 Bytes (0%)
Title : English (forced)
Language : English
Default : No
Forced : Yes

Text #3
ID : 5
Format : UTF-8
Codec ID : S_TEXT/UTF8
Codec ID/Info : UTF-8 Plain Text
Duration : 2 h 12 min
Bit rate : 64 b/s
Frame rate : 0.145 FPS
Count of elements : 1158
Stream size : 63.1 KiB (0%)
Title : Arabic
Language : Arabic
Default : No
Forced : No

Text #4
ID : 6
Format : UTF-8
Codec ID : S_TEXT/UTF8
Codec ID/Info : UTF-8 Plain Text
Duration : 2 h 12 min
Bit rate : 34 b/s
Frame rate : 0.144 FPS
Count of elements : 1150
Stream size : 33.8 KiB (0%)
Title : Catalan
Language : Catalan
Default : No
Forced : No

Text #5
ID : 7
Format : UTF-8
Codec ID : S_TEXT/UTF8
Codec ID/Info : UTF-8 Plain Text
Duration : 2 h 12 min
Bit rate : 35 b/s
Frame rate : 0.143 FPS
Count of elements : 1141
Stream size : 34.2 KiB (0%)
Title : Czech
Language : Czech
Default : No
Forced : No

Text #6
ID : 8
Format : UTF-8
Codec ID : S_TEXT/UTF8
Codec ID/Info : UTF-8 Plain Text
Duration : 2 h 12 min
Bit rate : 34 b/s
Frame rate : 0.136 FPS
Count of elements : 1080
Stream size : 34.0 KiB (0%)
Title : Danish
Language : Danish
Default : No
Forced : No

Text #7
ID : 9
Format : UTF-8
Codec ID : S_TEXT/UTF8
Codec ID/Info : UTF-8 Plain Text
Duration : 2 h 12 min
Bit rate : 36 b/s
Frame rate : 0.138 FPS
Count of elements : 1100
Stream size : 35.4 KiB (0%)
Title : German
Language : German
Default : No
Forced : No

Text #8
ID : 10
Format : UTF-8
Codec ID : S_TEXT/UTF8
Codec ID/Info : UTF-8 Plain Text
Duration : 2 h 12 min
Bit rate : 62 b/s
Frame rate : 0.142 FPS
Count of elements : 1134
Stream size : 60.7 KiB (0%)
Title : Greek
Language : Greek
Default : No
Forced : No

Text #9
ID : 11
Format : UTF-8
Codec ID : S_TEXT/UTF8
Codec ID/Info : UTF-8 Plain Text
Duration : 2 h 12 min
Bit rate : 36 b/s
Frame rate : 0.144 FPS
Count of elements : 1146
Stream size : 35.4 KiB (0%)
Title : Spanish (Latin America)
Language : Spanish
Default : No
Forced : No

Text #10
ID : 12
Format : UTF-8
Codec ID : S_TEXT/UTF8
Codec ID/Info : UTF-8 Plain Text
Duration : 2 h 12 min
Bit rate : 35 b/s
Frame rate : 0.141 FPS
Count of elements : 1127
Stream size : 34.5 KiB (0%)
Title : Spanish (Spain)
Language : Spanish
Default : No
Forced : No

Text #11
ID : 13
Format : UTF-8
Codec ID : S_TEXT/UTF8
Codec ID/Info : UTF-8 Plain Text
Duration : 2 h 12 min
Bit rate : 36 b/s
Frame rate : 0.142 FPS
Count of elements : 1129
Stream size : 35.1 KiB (0%)
Title : Basque
Language : Basque
Default : No
Forced : No

Text #12
ID : 14
Format : UTF-8
Codec ID : S_TEXT/UTF8
Codec ID/Info : UTF-8 Plain Text
Duration : 2 h 12 min
Bit rate : 35 b/s
Frame rate : 0.123 FPS
Count of elements : 978
Stream size : 34.9 KiB (0%)
Title : Finnish
Language : Finnish
Default : No
Forced : No

Text #13
ID : 15
Format : UTF-8
Codec ID : S_TEXT/UTF8
Codec ID/Info : UTF-8 Plain Text
Duration : 2 h 12 min
Bit rate : 35 b/s
Frame rate : 0.143 FPS
Count of elements : 1138
Stream size : 34.8 KiB (0%)
Title : Filipino
Language : Filipino
Default : No
Forced : No

Text #14
ID : 16
Format : UTF-8
Codec ID : S_TEXT/UTF8
Codec ID/Info : UTF-8 Plain Text
Duration : 2 h 12 min
Bit rate : 37 b/s
Frame rate : 0.150 FPS
Count of elements : 1192
Stream size : 36.1 KiB (0%)
Title : French
Language : French
Default : No
Forced : No

Text #15
ID : 17
Format : UTF-8
Codec ID : S_TEXT/UTF8
Codec ID/Info : UTF-8 Plain Text
Duration : 2 h 12 min
Bit rate : 34 b/s
Frame rate : 0.144 FPS
Count of elements : 1148
Stream size : 33.8 KiB (0%)
Title : Galician
Language : Galician
Default : No
Forced : No

Text #16
ID : 18
Format : UTF-8
Codec ID : S_TEXT/UTF8
Codec ID/Info : UTF-8 Plain Text
Duration : 2 h 12 min
Bit rate : 59 b/s
Frame rate : 0.144 FPS
Count of elements : 1150
Stream size : 57.9 KiB (0%)
Title : Hebrew
Language : Hebrew
Default : No
Forced : No

Text #17
ID : 19
Format : UTF-8
Codec ID : S_TEXT/UTF8
Codec ID/Info : UTF-8 Plain Text
Duration : 2 h 12 min
Bit rate : 33 b/s
Frame rate : 0.143 FPS
Count of elements : 1141
Stream size : 33.0 KiB (0%)
Title : Croatian
Language : Croatian
Default : No
Forced : No

Text #18
ID : 20
Format : UTF-8
Codec ID : S_TEXT/UTF8
Codec ID/Info : UTF-8 Plain Text
Duration : 2 h 12 min
Bit rate : 36 b/s
Frame rate : 0.141 FPS
Count of elements : 1124
Stream size : 35.7 KiB (0%)
Title : Hungarian
Language : Hungarian
Default : No
Forced : No

Text #19
ID : 21
Format : UTF-8
Codec ID : S_TEXT/UTF8
Codec ID/Info : UTF-8 Plain Text
Duration : 2 h 12 min
Bit rate : 34 b/s
Frame rate : 0.144 FPS
Count of elements : 1146
Stream size : 33.9 KiB (0%)
Title : Indonesian
Language : Indonesian
Default : No
Forced : No

Text #20
ID : 22
Format : UTF-8
Codec ID : S_TEXT/UTF8
Codec ID/Info : UTF-8 Plain Text
Duration : 2 h 12 min
Bit rate : 36 b/s
Frame rate : 0.140 FPS
Count of elements : 1113
Stream size : 35.4 KiB (0%)
Title : Italian
Language : Italian
Default : No
Forced : No

Text #21
ID : 23
Format : UTF-8
Codec ID : S_TEXT/UTF8
Codec ID/Info : UTF-8 Plain Text
Duration : 2 h 12 min
Bit rate : 31 b/s
Frame rate : 0.132 FPS
Count of elements : 1051
Stream size : 30.5 KiB (0%)
Title : Japanese
Language : Japanese
Default : No
Forced : No

Text #22
ID : 24
Format : UTF-8
Codec ID : S_TEXT/UTF8
Codec ID/Info : UTF-8 Plain Text
Duration : 2 h 12 min
Bit rate : 43 b/s
Frame rate : 0.158 FPS
Count of elements : 1257
Stream size : 42.0 KiB (0%)
Title : Korean
Language : Korean
Default : No
Forced : No

Text #23
ID : 25
Format : UTF-8
Codec ID : S_TEXT/UTF8
Codec ID/Info : UTF-8 Plain Text
Duration : 2 h 12 min
Bit rate : 34 b/s
Frame rate : 0.144 FPS
Count of elements : 1148
Stream size : 33.9 KiB (0%)
Title : Malay
Language : Malay
Default : No
Forced : No

Text #24
ID : 26
Format : UTF-8
Codec ID : S_TEXT/UTF8
Codec ID/Info : UTF-8 Plain Text
Duration : 2 h 12 min
Bit rate : 34 b/s
Frame rate : 0.138 FPS
Count of elements : 1097
Stream size : 33.9 KiB (0%)
Title : Norwegian
Language : Norwegian Bokmal
Default : No
Forced : No

Text #25
ID : 27
Format : UTF-8
Codec ID : S_TEXT/UTF8
Codec ID/Info : UTF-8 Plain Text
Duration : 2 h 12 min
Bit rate : 33 b/s
Frame rate : 0.120 FPS
Count of elements : 953
Stream size : 33.0 KiB (0%)
Title : Dutch
Language : Dutch
Default : No
Forced : No

Text #26
ID : 28
Format : UTF-8
Codec ID : S_TEXT/UTF8
Codec ID/Info : UTF-8 Plain Text
Duration : 2 h 12 min
Bit rate : 33 b/s
Frame rate : 0.141 FPS
Count of elements : 1120
Stream size : 32.8 KiB (0%)
Title : Polish
Language : Polish
Default : No
Forced : No

Text #27
ID : 29
Format : UTF-8
Codec ID : S_TEXT/UTF8
Codec ID/Info : UTF-8 Plain Text
Duration : 2 h 12 min
Bit rate : 36 b/s
Frame rate : 0.144 FPS
Count of elements : 1151
Stream size : 35.5 KiB (0%)
Title : Portuguese (Portugal)
Language : Portuguese
Default : No
Forced : No

Text #28
ID : 30
Format : UTF-8
Codec ID : S_TEXT/UTF8
Codec ID/Info : UTF-8 Plain Text
Duration : 2 h 12 min
Bit rate : 34 b/s
Frame rate : 0.140 FPS
Count of elements : 1117
Stream size : 33.6 KiB (0%)
Title : Portuguese (Brazil)
Language : Portuguese
Default : No
Forced : No

Text #29
ID : 31
Format : UTF-8
Codec ID : S_TEXT/UTF8
Codec ID/Info : UTF-8 Plain Text
Duration : 2 h 12 min
Bit rate : 35 b/s
Frame rate : 0.140 FPS
Count of elements : 1113
Stream size : 34.6 KiB (0%)
Title : Romanian
Language : Romanian
Default : No
Forced : No

Text #30
ID : 32
Format : UTF-8
Codec ID : S_TEXT/UTF8
Codec ID/Info : UTF-8 Plain Text
Duration : 2 h 12 min
Bit rate : 59 b/s
Frame rate : 0.142 FPS
Count of elements : 1135
Stream size : 57.6 KiB (0%)
Title : Russian
Language : Russian
Default : No
Forced : No

Text #31
ID : 33
Format : UTF-8
Codec ID : S_TEXT/UTF8
Codec ID/Info : UTF-8 Plain Text
Duration : 2 h 12 min
Bit rate : 36 b/s
Frame rate : 0.138 FPS
Count of elements : 1096
Stream size : 35.2 KiB (0%)
Title : Swedish
Language : Swedish
Default : No
Forced : No

Text #32
ID : 34
Format : UTF-8
Codec ID : S_TEXT/UTF8
Codec ID/Info : UTF-8 Plain Text
Duration : 2 h 12 min
Bit rate : 95 b/s
Frame rate : 0.145 FPS
Count of elements : 1153
Stream size : 92.9 KiB (0%)
Title : Thai
Language : Thai
Default : No
Forced : No

Text #33
ID : 35
Format : UTF-8
Codec ID : S_TEXT/UTF8
Codec ID/Info : UTF-8 Plain Text
Duration : 2 h 12 min
Bit rate : 36 b/s
Frame rate : 0.144 FPS
Count of elements : 1145
Stream size : 35.3 KiB (0%)
Title : Turkish
Language : Turkish
Default : No
Forced : No

Text #34
ID : 36
Format : UTF-8
Codec ID : S_TEXT/UTF8
Codec ID/Info : UTF-8 Plain Text
Duration : 2 h 12 min
Bit rate : 60 b/s
Frame rate : 0.144 FPS
Count of elements : 1148
Stream size : 59.2 KiB (0%)
Title : Ukrainian
Language : Ukrainian
Default : No
Forced : No

Text #35
ID : 37
Format : UTF-8
Codec ID : S_TEXT/UTF8
Codec ID/Info : UTF-8 Plain Text
Duration : 2 h 12 min
Bit rate : 49 b/s
Frame rate : 0.144 FPS
Count of elements : 1146
Stream size : 48.3 KiB (0%)
Title : Vietnamese
Language : Vietnamese
Default : No
Forced : No

Text #36
ID : 38
Format : UTF-8
Codec ID : S_TEXT/UTF8
Codec ID/Info : UTF-8 Plain Text
Duration : 2 h 12 min
Bit rate : 34 b/s
Frame rate : 0.144 FPS
Count of elements : 1148
Stream size : 33.3 KiB (0%)
Title : Simplified Chinese
Language : Chinese
Default : No
Forced : No

Text #37
ID : 39
Format : UTF-8
Codec ID : S_TEXT/UTF8
Codec ID/Info : UTF-8 Plain Text
Duration : 2 h 12 min
Bit rate : 32 b/s
Frame rate : 0.144 FPS
Count of elements : 1150
Stream size : 31.8 KiB (0%)
Title : Traditional Chinese
Language : Chinese
Default : No
Forced : No

Text #38
ID : 40
Format : UTF-8
Codec ID : S_TEXT/UTF8
Codec ID/Info : UTF-8 Plain Text
Duration : 2 h 13 min
Bit rate : 45 b/s
Frame rate : 0.187 FPS
Count of elements : 1492
Stream size : 44.7 KiB (0%)
Title : Czech (SDH)
Language : Czech
Default : No
Forced : No

Text #39
ID : 41
Format : UTF-8
Codec ID : S_TEXT/UTF8
Codec ID/Info : UTF-8 Plain Text
Duration : 2 h 13 min
Bit rate : 59 b/s
Frame rate : 0.215 FPS
Count of elements : 1716
Stream size : 58.0 KiB (0%)
Title : German (SDH)
Language : German
Default : No
Forced : No

Text #40
ID : 42
Format : UTF-8
Codec ID : S_TEXT/UTF8
Codec ID/Info : UTF-8 Plain Text
Duration : 2 h 13 min
Bit rate : 52 b/s
Frame rate : 0.208 FPS
Count of elements : 1659
Stream size : 51.5 KiB (0%)
Title : Spanish (Spain) (SDH)
Language : Spanish
Default : No
Forced : No

Text #41
ID : 43
Format : UTF-8
Codec ID : S_TEXT/UTF8
Codec ID/Info : UTF-8 Plain Text
Duration : 2 h 6 min
Bit rate : 47 b/s
Frame rate : 0.181 FPS
Count of elements : 1365
Stream size : 43.9 KiB (0%)
Title : Spanish (Latin America) (SDH)
Language : Spanish
Default : No
Forced : No

Text #42
ID : 44
Format : UTF-8
Codec ID : S_TEXT/UTF8
Codec ID/Info : UTF-8 Plain Text
Duration : 2 h 13 min
Bit rate : 55 b/s
Frame rate : 0.212 FPS
Count of elements : 1698
Stream size : 54.3 KiB (0%)
Title : French (SDH)
Language : French
Default : No
Forced : No

Text #43
ID : 45
Format : UTF-8
Codec ID : S_TEXT/UTF8
Codec ID/Info : UTF-8 Plain Text
Duration : 2 h 4 min
Bit rate : 47 b/s
Frame rate : 0.203 FPS
Count of elements : 1507
Stream size : 43.0 KiB (0%)
Title : Hungarian (SDH)
Language : Hungarian
Default : No
Forced : No

Text #44
ID : 46
Format : UTF-8
Codec ID : S_TEXT/UTF8
Codec ID/Info : UTF-8 Plain Text
Duration : 2 h 11 min
Bit rate : 44 b/s
Frame rate : 0.178 FPS
Count of elements : 1405
Stream size : 43.1 KiB (0%)
Title : Indonesian (SDH)
Language : Indonesian
Default : No
Forced : No

Text #45
ID : 47
Format : UTF-8
Codec ID : S_TEXT/UTF8
Codec ID/Info : UTF-8 Plain Text
Duration : 2 h 13 min
Bit rate : 52 b/s
Frame rate : 0.207 FPS
Count of elements : 1655
Stream size : 51.5 KiB (0%)
Title : Italian (SDH)
Language : Italian
Default : No
Forced : No

Text #46
ID : 48
Format : UTF-8
Codec ID : S_TEXT/UTF8
Codec ID/Info : UTF-8 Plain Text
Duration : 2 h 13 min
Bit rate : 51 b/s
Frame rate : 0.207 FPS
Count of elements : 1656
Stream size : 50.5 KiB (0%)
Title : Portuguese (Brazil) (SDH)
Language : Portuguese
Default : No
Forced : No

Text #47
ID : 49
Format : UTF-8
Codec ID : S_TEXT/UTF8
Codec ID/Info : UTF-8 Plain Text
Duration : 2 h 13 min
Bit rate : 54 b/s
Frame rate : 0.201 FPS
Count of elements : 1609
Stream size : 52.9 KiB (0%)
Title : Turkish (SDH)
Language : Turkish
Default : No
Forced : No

[collapse]
Download Link(s)

Download

Direct download files get automatically deleted after a month or so. Posted on : 12/22/2023

[collapse]
Magnet Link

Magnet

Rebel.Moon.Part.One.A.Child.of.Fire.2023.1080p.WEB.H264-AccomplishedYak.TGx-5.37 GB

[collapse]

You may also like...

error: nah :p~