Raymond & Ray (2022)

R | 1h 45min | Comedy, Drama

Half brothers Raymond and Ray reunite when their estranged father dies – and discover that his final wish was for them to dig his grave. Together, they process who they’ve become as men, both because of their father and in spite of him.

Watch trailer

Media information

General
Format : Matroska
Format version : Version 4
File size : 1.55 GiB
Duration : 1 h 45 min
Overall bit rate : 2 091 kb/s
Movie name : Raymond.and.Ray.2022.1080p.10bit.WEBRip.6CH.x265.HEVC

Video
ID : 1
Format : HEVC
Format/Info : High Efficiency Video Coding
Format profile : Main 10@L4@Main
Codec ID : V_MPEGH/ISO/HEVC
Duration : 1 h 45 min
Bit rate : 1 879 kb/s
Width : 1 920 pixels
Height : 808 pixels
Display aspect ratio : 2.40:1
Frame rate mode : Constant
Frame rate : 23.976 (24000/1001) FPS
Color space : YUV
Chroma subsampling : 4:2:0
Bit depth : 10 bits
Bits/(Pixel*Frame) : 0.051
Stream size : 1.39 GiB (90%)
Default : Yes
Forced : No
Color range : Limited
Color primaries : BT.709
Transfer characteristics : BT.709
Matrix coefficients : BT.709

Audio
ID : 2
Format : AAC LC SBR
Commercial name : HE-AAC
Format settings : Explicit
Codec ID : A_AAC-2
Duration : 1 h 45 min
Bit rate : 206 kb/s
Channel(s) : 6 channels
Channel layout : C L R Ls Rs LFE
Sampling rate : 48.0 kHz
Frame rate : 23.438 FPS (2048 SPF)
Compression mode : Lossy
Delay relative to video : 23 ms
Stream size : 156 MiB (10%)
Language : English
Default : Yes
Forced : No

Text #1
ID : 3
Format : UTF-8
Codec ID : S_TEXT/UTF8
Codec ID/Info : UTF-8 Plain Text
Duration : 1 h 36 min
Bit rate : 50 b/s
Frame rate : 0.192 FPS
Count of elements : 1115
Stream size : 36.0 KiB (0%)
Title : English
Language : English
Default : No
Forced : No

Text #2
ID : 4
Format : UTF-8
Codec ID : S_TEXT/UTF8
Codec ID/Info : UTF-8 Plain Text
Duration : 21 min 15 s
Bit rate : 0 b/s
Frame rate : 0.004 FPS
Count of elements : 5
Stream size : 103 Bytes (0%)
Title : English [Forced]
Language : English
Default : No
Forced : Yes

Text #3
ID : 5
Format : UTF-8
Codec ID : S_TEXT/UTF8
Codec ID/Info : UTF-8 Plain Text
Duration : 1 h 39 min
Bit rate : 56 b/s
Frame rate : 0.209 FPS
Count of elements : 1244
Stream size : 41.0 KiB (0%)
Title : English [SDH]
Language : English
Default : Yes
Forced : No

Text #4
ID : 6
Format : UTF-8
Codec ID : S_TEXT/UTF8
Codec ID/Info : UTF-8 Plain Text
Duration : 1 h 43 min
Bit rate : 64 b/s
Frame rate : 0.180 FPS
Count of elements : 1118
Stream size : 49.0 KiB (0%)
Title : Arabic
Language : Arabic
Default : No
Forced : No

Text #5
ID : 7
Format : UTF-8
Codec ID : S_TEXT/UTF8
Codec ID/Info : UTF-8 Plain Text
Duration : 1 h 43 min
Bit rate : 70 b/s
Frame rate : 0.163 FPS
Count of elements : 1014
Stream size : 53.4 KiB (0%)
Title : Bulgarian
Language : Bulgarian
Default : No
Forced : No

Text #6
ID : 8
Format : UTF-8
Codec ID : S_TEXT/UTF8
Codec ID/Info : UTF-8 Plain Text
Duration : 1 h 43 min
Bit rate : 44 b/s
Frame rate : 0.180 FPS
Count of elements : 1122
Stream size : 34.1 KiB (0%)
Title : Chinese Simplified
Language : Chinese
Default : No
Forced : No

Text #7
ID : 9
Format : UTF-8
Codec ID : S_TEXT/UTF8
Codec ID/Info : UTF-8 Plain Text
Duration : 1 h 43 min
Bit rate : 44 b/s
Frame rate : 0.181 FPS
Count of elements : 1124
Stream size : 34.0 KiB (0%)
Title : Chinese Traditional
Language : Chinese
Default : No
Forced : No

Text #8
ID : 10
Format : UTF-8
Codec ID : S_TEXT/UTF8
Codec ID/Info : UTF-8 Plain Text
Duration : 1 h 43 min
Bit rate : 43 b/s
Frame rate : 0.181 FPS
Count of elements : 1124
Stream size : 32.7 KiB (0%)
Title : Chinese Yue
Language : Chinese
Default : No
Forced : No

Text #9
ID : 11
Format : UTF-8
Codec ID : S_TEXT/UTF8
Codec ID/Info : UTF-8 Plain Text
Duration : 1 h 43 min
Bit rate : 43 b/s
Frame rate : 0.170 FPS
Count of elements : 1057
Stream size : 33.0 KiB (0%)
Title : Czech
Language : Czech
Default : No
Forced : No

Text #10
ID : 12
Format : UTF-8
Codec ID : S_TEXT/UTF8
Codec ID/Info : UTF-8 Plain Text
Duration : 1 h 43 min
Bit rate : 43 b/s
Frame rate : 0.165 FPS
Count of elements : 1030
Stream size : 33.3 KiB (0%)
Title : Danish
Language : Danish
Default : No
Forced : No

Text #11
ID : 13
Format : UTF-8
Codec ID : S_TEXT/UTF8
Codec ID/Info : UTF-8 Plain Text
Duration : 1 h 43 min
Bit rate : 43 b/s
Frame rate : 0.145 FPS
Count of elements : 903
Stream size : 33.2 KiB (0%)
Title : Dutch
Language : Dutch
Default : No
Forced : No

Text #12
ID : 14
Format : UTF-8
Codec ID : S_TEXT/UTF8
Codec ID/Info : UTF-8 Plain Text
Duration : 1 h 43 min
Bit rate : 45 b/s
Frame rate : 0.160 FPS
Count of elements : 993
Stream size : 34.7 KiB (0%)
Title : Estonian
Language : Estonian
Default : No
Forced : No

Text #13
ID : 15
Format : UTF-8
Codec ID : S_TEXT/UTF8
Codec ID/Info : UTF-8 Plain Text
Duration : 1 h 43 min
Bit rate : 46 b/s
Frame rate : 0.175 FPS
Count of elements : 1089
Stream size : 35.4 KiB (0%)
Title : European Spanish
Language : Spanish
Default : No
Forced : No

Text #14
ID : 16
Format : UTF-8
Codec ID : S_TEXT/UTF8
Codec ID/Info : UTF-8 Plain Text
Duration : 1 h 43 min
Bit rate : 44 b/s
Frame rate : 0.173 FPS
Count of elements : 1075
Stream size : 33.5 KiB (0%)
Title : Finnish
Language : Finnish
Default : No
Forced : No

Text #15
ID : 17
Format : UTF-8
Codec ID : S_TEXT/UTF8
Codec ID/Info : UTF-8 Plain Text
Duration : 1 h 37 min
Bit rate : 46 b/s
Frame rate : 0.202 FPS
Count of elements : 1181
Stream size : 33.1 KiB (0%)
Title : French
Language : French
Default : No
Forced : No

Text #16
ID : 18
Format : UTF-8
Codec ID : S_TEXT/UTF8
Codec ID/Info : UTF-8 Plain Text
Duration : 1 h 37 min
Bit rate : 46 b/s
Frame rate : 0.202 FPS
Count of elements : 1181
Stream size : 33.1 KiB (0%)
Title : French Canadian
Language : French
Default : No
Forced : No

Text #17
ID : 19
Format : UTF-8
Codec ID : S_TEXT/UTF8
Codec ID/Info : UTF-8 Plain Text
Duration : 1 h 38 min
Bit rate : 56 b/s
Frame rate : 0.184 FPS
Count of elements : 1094
Stream size : 41.2 KiB (0%)
Title : German
Language : German
Default : No
Forced : No

Text #18
ID : 20
Format : UTF-8
Codec ID : S_TEXT/UTF8
Codec ID/Info : UTF-8 Plain Text
Duration : 1 h 43 min
Bit rate : 79 b/s
Frame rate : 0.167 FPS
Count of elements : 1042
Stream size : 60.7 KiB (0%)
Title : Greek
Language : Greek
Default : No
Forced : No

Text #19
ID : 21
Format : UTF-8
Codec ID : S_TEXT/UTF8
Codec ID/Info : UTF-8 Plain Text
Duration : 1 h 43 min
Bit rate : 63 b/s
Frame rate : 0.180 FPS
Count of elements : 1121
Stream size : 48.1 KiB (0%)
Title : Hebrew
Language : Hebrew
Default : No
Forced : No

Text #20
ID : 22
Format : UTF-8
Codec ID : S_TEXT/UTF8
Codec ID/Info : UTF-8 Plain Text
Duration : 1 h 43 min
Bit rate : 136 b/s
Frame rate : 0.181 FPS
Count of elements : 1124
Stream size : 103 KiB (0%)
Title : Hindi
Language : Hindi
Default : No
Forced : No

Text #21
ID : 23
Format : UTF-8
Codec ID : S_TEXT/UTF8
Codec ID/Info : UTF-8 Plain Text
Duration : 1 h 43 min
Bit rate : 47 b/s
Frame rate : 0.178 FPS
Count of elements : 1111
Stream size : 36.1 KiB (0%)
Title : Hungarian
Language : Hungarian
Default : No
Forced : No

Text #22
ID : 24
Format : UTF-8
Codec ID : S_TEXT/UTF8
Codec ID/Info : UTF-8 Plain Text
Duration : 1 h 43 min
Bit rate : 46 b/s
Frame rate : 0.179 FPS
Count of elements : 1117
Stream size : 35.7 KiB (0%)
Title : Indonesian
Language : Indonesian
Default : No
Forced : No

Text #23
ID : 25
Format : UTF-8
Codec ID : S_TEXT/UTF8
Codec ID/Info : UTF-8 Plain Text
Duration : 1 h 38 min
Bit rate : 52 b/s
Frame rate : 0.189 FPS
Count of elements : 1123
Stream size : 37.8 KiB (0%)
Title : Italian
Language : Italian
Default : No
Forced : No

Text #24
ID : 26
Format : UTF-8
Codec ID : S_TEXT/UTF8
Codec ID/Info : UTF-8 Plain Text
Duration : 1 h 43 min
Bit rate : 41 b/s
Frame rate : 0.180 FPS
Count of elements : 1117
Stream size : 31.5 KiB (0%)
Title : Japanese
Language : Japanese
Default : No
Forced : No

Text #25
ID : 27
Format : UTF-8
Codec ID : S_TEXT/UTF8
Codec ID/Info : UTF-8 Plain Text
Duration : 1 h 43 min
Bit rate : 53 b/s
Frame rate : 0.180 FPS
Count of elements : 1123
Stream size : 40.9 KiB (0%)
Title : Korean
Language : Korean
Default : No
Forced : No

Text #26
ID : 28
Format : UTF-8
Codec ID : S_TEXT/UTF8
Codec ID/Info : UTF-8 Plain Text
Duration : 1 h 43 min
Bit rate : 49 b/s
Frame rate : 0.179 FPS
Count of elements : 1113
Stream size : 37.9 KiB (0%)
Title : Latin America Spanish
Language : Spanish
Default : No
Forced : No

Text #27
ID : 29
Format : UTF-8
Codec ID : S_TEXT/UTF8
Codec ID/Info : UTF-8 Plain Text
Duration : 1 h 43 min
Bit rate : 48 b/s
Frame rate : 0.176 FPS
Count of elements : 1096
Stream size : 37.2 KiB (0%)
Title : Latvian
Language : Latvian
Default : No
Forced : No

Text #28
ID : 30
Format : UTF-8
Codec ID : S_TEXT/UTF8
Codec ID/Info : UTF-8 Plain Text
Duration : 1 h 43 min
Bit rate : 46 b/s
Frame rate : 0.178 FPS
Count of elements : 1107
Stream size : 35.3 KiB (0%)
Title : Lithuanian
Language : Lithuanian
Default : No
Forced : No

Text #29
ID : 31
Format : UTF-8
Codec ID : S_TEXT/UTF8
Codec ID/Info : UTF-8 Plain Text
Duration : 1 h 43 min
Bit rate : 47 b/s
Frame rate : 0.179 FPS
Count of elements : 1117
Stream size : 36.2 KiB (0%)
Title : Malay
Language : Malay
Default : No
Forced : No

Text #30
ID : 32
Format : UTF-8
Codec ID : S_TEXT/UTF8
Codec ID/Info : UTF-8 Plain Text
Duration : 1 h 43 min
Bit rate : 45 b/s
Frame rate : 0.146 FPS
Count of elements : 906
Stream size : 34.2 KiB (0%)
Title : Norwegian
Language : Norwegian
Default : No
Forced : No

Text #31
ID : 33
Format : UTF-8
Codec ID : S_TEXT/UTF8
Codec ID/Info : UTF-8 Plain Text
Duration : 1 h 43 min
Bit rate : 43 b/s
Frame rate : 0.170 FPS
Count of elements : 1061
Stream size : 33.2 KiB (0%)
Title : Polish
Language : Polish
Default : No
Forced : No

Text #32
ID : 34
Format : UTF-8
Codec ID : S_TEXT/UTF8
Codec ID/Info : UTF-8 Plain Text
Duration : 1 h 43 min
Bit rate : 48 b/s
Frame rate : 0.178 FPS
Count of elements : 1107
Stream size : 36.7 KiB (0%)
Title : Portuguese
Language : Portuguese
Default : No
Forced : No

Text #33
ID : 35
Format : UTF-8
Codec ID : S_TEXT/UTF8
Codec ID/Info : UTF-8 Plain Text
Duration : 1 h 43 min
Bit rate : 45 b/s
Frame rate : 0.176 FPS
Count of elements : 1095
Stream size : 34.4 KiB (0%)
Title : Portuguese Brazilian
Language : Portuguese
Default : No
Forced : No

Text #34
ID : 36
Format : UTF-8
Codec ID : S_TEXT/UTF8
Codec ID/Info : UTF-8 Plain Text
Duration : 1 h 43 min
Bit rate : 71 b/s
Frame rate : 0.180 FPS
Count of elements : 1121
Stream size : 54.0 KiB (0%)
Title : Russian
Language : Russian
Default : No
Forced : No

Text #35
ID : 37
Format : UTF-8
Codec ID : S_TEXT/UTF8
Codec ID/Info : UTF-8 Plain Text
Duration : 1 h 43 min
Bit rate : 45 b/s
Frame rate : 0.179 FPS
Count of elements : 1113
Stream size : 34.8 KiB (0%)
Title : Slovak
Language : Slovak
Default : No
Forced : No

Text #36
ID : 38
Format : UTF-8
Codec ID : S_TEXT/UTF8
Codec ID/Info : UTF-8 Plain Text
Duration : 1 h 43 min
Bit rate : 38 b/s
Frame rate : 0.152 FPS
Count of elements : 943
Stream size : 29.4 KiB (0%)
Title : Slovenian
Language : Slovenian
Default : No
Forced : No

Text #37
ID : 39
Format : UTF-8
Codec ID : S_TEXT/UTF8
Codec ID/Info : UTF-8 Plain Text
Duration : 1 h 43 min
Bit rate : 47 b/s
Frame rate : 0.168 FPS
Count of elements : 1048
Stream size : 35.7 KiB (0%)
Title : Swedish
Language : Swedish
Default : No
Forced : No

Text #38
ID : 40
Format : UTF-8
Codec ID : S_TEXT/UTF8
Codec ID/Info : UTF-8 Plain Text
Duration : 1 h 43 min
Bit rate : 147 b/s
Frame rate : 0.180 FPS
Count of elements : 1122
Stream size : 112 KiB (0%)
Title : Tamil
Language : Tamil
Default : No
Forced : No

Text #39
ID : 41
Format : UTF-8
Codec ID : S_TEXT/UTF8
Codec ID/Info : UTF-8 Plain Text
Duration : 1 h 43 min
Bit rate : 143 b/s
Frame rate : 0.180 FPS
Count of elements : 1122
Stream size : 109 KiB (0%)
Title : Telugu
Language : Telugu
Default : No
Forced : No

Text #40
ID : 42
Format : UTF-8
Codec ID : S_TEXT/UTF8
Codec ID/Info : UTF-8 Plain Text
Duration : 1 h 43 min
Bit rate : 119 b/s
Frame rate : 0.180 FPS
Count of elements : 1122
Stream size : 90.6 KiB (0%)
Title : Thai
Language : Thai
Default : No
Forced : No

Text #41
ID : 43
Format : UTF-8
Codec ID : S_TEXT/UTF8
Codec ID/Info : UTF-8 Plain Text
Duration : 1 h 43 min
Bit rate : 47 b/s
Frame rate : 0.178 FPS
Count of elements : 1110
Stream size : 35.8 KiB (0%)
Title : Turkish
Language : Turkish
Default : No
Forced : No

Text #42
ID : 44
Format : UTF-8
Codec ID : S_TEXT/UTF8
Codec ID/Info : UTF-8 Plain Text
Duration : 1 h 43 min
Bit rate : 69 b/s
Frame rate : 0.180 FPS
Count of elements : 1120
Stream size : 53.2 KiB (0%)
Title : Ukrainian
Language : Ukrainian
Default : No
Forced : No

Text #43
ID : 45
Format : UTF-8
Codec ID : S_TEXT/UTF8
Codec ID/Info : UTF-8 Plain Text
Duration : 1 h 43 min
Bit rate : 60 b/s
Frame rate : 0.179 FPS
Count of elements : 1117
Stream size : 46.0 KiB (0%)
Title : Vietnamese
Language : Vietnamese
Default : No
Forced : No

[collapse]
Download Link(s)

Download

Direct download files get automatically deleted after a month or so. Posted on : 10/21/2022

[collapse]
Magnet Link

Magnet

Raymond.and.Ray.2022.1080p.WEB.H264-NAISU-7.90 GB

[collapse]

Media information

General
Format : Matroska
Format version : Version 4
File size : 764 MiB
Duration : 1 h 45 min
Overall bit rate : 1 009 kb/s
Movie name : Raymond.and.Ray.2022.720p.10bit.WEBRip.6CH.x265.HEVC

Video
ID : 1
Format : HEVC
Format/Info : High Efficiency Video Coding
Format profile : Main [email protected]@Main
Codec ID : V_MPEGH/ISO/HEVC
Duration : 1 h 45 min
Bit rate : 797 kb/s
Width : 1 280 pixels
Height : 536 pixels
Display aspect ratio : 2.40:1
Frame rate mode : Constant
Frame rate : 23.976 (24000/1001) FPS
Color space : YUV
Chroma subsampling : 4:2:0
Bit depth : 10 bits
Bits/(Pixel*Frame) : 0.048
Stream size : 604 MiB (79%)
Default : Yes
Forced : No
Color range : Limited
Color primaries : BT.709
Transfer characteristics : BT.709
Matrix coefficients : BT.709

Audio
ID : 2
Format : AAC LC SBR
Commercial name : HE-AAC
Format settings : Explicit
Codec ID : A_AAC-2
Duration : 1 h 45 min
Bit rate : 206 kb/s
Channel(s) : 6 channels
Channel layout : C L R Ls Rs LFE
Sampling rate : 48.0 kHz
Frame rate : 23.438 FPS (2048 SPF)
Compression mode : Lossy
Delay relative to video : 23 ms
Stream size : 156 MiB (20%)
Language : English
Default : Yes
Forced : No

Text #1
ID : 3
Format : UTF-8
Codec ID : S_TEXT/UTF8
Codec ID/Info : UTF-8 Plain Text
Duration : 1 h 36 min
Bit rate : 50 b/s
Frame rate : 0.192 FPS
Count of elements : 1115
Stream size : 36.0 KiB (0%)
Title : English
Language : English
Default : No
Forced : No

Text #2
ID : 4
Format : UTF-8
Codec ID : S_TEXT/UTF8
Codec ID/Info : UTF-8 Plain Text
Duration : 21 min 15 s
Bit rate : 0 b/s
Frame rate : 0.004 FPS
Count of elements : 5
Stream size : 103 Bytes (0%)
Title : English [Forced]
Language : English
Default : No
Forced : Yes

Text #3
ID : 5
Format : UTF-8
Codec ID : S_TEXT/UTF8
Codec ID/Info : UTF-8 Plain Text
Duration : 1 h 39 min
Bit rate : 56 b/s
Frame rate : 0.209 FPS
Count of elements : 1244
Stream size : 41.0 KiB (0%)
Title : English [SDH]
Language : English
Default : Yes
Forced : No

Text #4
ID : 6
Format : UTF-8
Codec ID : S_TEXT/UTF8
Codec ID/Info : UTF-8 Plain Text
Duration : 1 h 43 min
Bit rate : 64 b/s
Frame rate : 0.180 FPS
Count of elements : 1118
Stream size : 49.0 KiB (0%)
Title : Arabic
Language : Arabic
Default : No
Forced : No

Text #5
ID : 7
Format : UTF-8
Codec ID : S_TEXT/UTF8
Codec ID/Info : UTF-8 Plain Text
Duration : 1 h 43 min
Bit rate : 70 b/s
Frame rate : 0.163 FPS
Count of elements : 1014
Stream size : 53.4 KiB (0%)
Title : Bulgarian
Language : Bulgarian
Default : No
Forced : No

Text #6
ID : 8
Format : UTF-8
Codec ID : S_TEXT/UTF8
Codec ID/Info : UTF-8 Plain Text
Duration : 1 h 43 min
Bit rate : 44 b/s
Frame rate : 0.180 FPS
Count of elements : 1122
Stream size : 34.1 KiB (0%)
Title : Chinese Simplified
Language : Chinese
Default : No
Forced : No

Text #7
ID : 9
Format : UTF-8
Codec ID : S_TEXT/UTF8
Codec ID/Info : UTF-8 Plain Text
Duration : 1 h 43 min
Bit rate : 44 b/s
Frame rate : 0.181 FPS
Count of elements : 1124
Stream size : 34.0 KiB (0%)
Title : Chinese Traditional
Language : Chinese
Default : No
Forced : No

Text #8
ID : 10
Format : UTF-8
Codec ID : S_TEXT/UTF8
Codec ID/Info : UTF-8 Plain Text
Duration : 1 h 43 min
Bit rate : 43 b/s
Frame rate : 0.181 FPS
Count of elements : 1124
Stream size : 32.7 KiB (0%)
Title : Chinese Yue
Language : Chinese
Default : No
Forced : No

Text #9
ID : 11
Format : UTF-8
Codec ID : S_TEXT/UTF8
Codec ID/Info : UTF-8 Plain Text
Duration : 1 h 43 min
Bit rate : 43 b/s
Frame rate : 0.170 FPS
Count of elements : 1057
Stream size : 33.0 KiB (0%)
Title : Czech
Language : Czech
Default : No
Forced : No

Text #10
ID : 12
Format : UTF-8
Codec ID : S_TEXT/UTF8
Codec ID/Info : UTF-8 Plain Text
Duration : 1 h 43 min
Bit rate : 43 b/s
Frame rate : 0.165 FPS
Count of elements : 1030
Stream size : 33.3 KiB (0%)
Title : Danish
Language : Danish
Default : No
Forced : No

Text #11
ID : 13
Format : UTF-8
Codec ID : S_TEXT/UTF8
Codec ID/Info : UTF-8 Plain Text
Duration : 1 h 43 min
Bit rate : 43 b/s
Frame rate : 0.145 FPS
Count of elements : 903
Stream size : 33.2 KiB (0%)
Title : Dutch
Language : Dutch
Default : No
Forced : No

Text #12
ID : 14
Format : UTF-8
Codec ID : S_TEXT/UTF8
Codec ID/Info : UTF-8 Plain Text
Duration : 1 h 43 min
Bit rate : 45 b/s
Frame rate : 0.160 FPS
Count of elements : 993
Stream size : 34.7 KiB (0%)
Title : Estonian
Language : Estonian
Default : No
Forced : No

Text #13
ID : 15
Format : UTF-8
Codec ID : S_TEXT/UTF8
Codec ID/Info : UTF-8 Plain Text
Duration : 1 h 43 min
Bit rate : 46 b/s
Frame rate : 0.175 FPS
Count of elements : 1089
Stream size : 35.4 KiB (0%)
Title : European Spanish
Language : Spanish
Default : No
Forced : No

Text #14
ID : 16
Format : UTF-8
Codec ID : S_TEXT/UTF8
Codec ID/Info : UTF-8 Plain Text
Duration : 1 h 43 min
Bit rate : 44 b/s
Frame rate : 0.173 FPS
Count of elements : 1075
Stream size : 33.5 KiB (0%)
Title : Finnish
Language : Finnish
Default : No
Forced : No

Text #15
ID : 17
Format : UTF-8
Codec ID : S_TEXT/UTF8
Codec ID/Info : UTF-8 Plain Text
Duration : 1 h 37 min
Bit rate : 46 b/s
Frame rate : 0.202 FPS
Count of elements : 1181
Stream size : 33.1 KiB (0%)
Title : French
Language : French
Default : No
Forced : No

Text #16
ID : 18
Format : UTF-8
Codec ID : S_TEXT/UTF8
Codec ID/Info : UTF-8 Plain Text
Duration : 1 h 37 min
Bit rate : 46 b/s
Frame rate : 0.202 FPS
Count of elements : 1181
Stream size : 33.1 KiB (0%)
Title : French Canadian
Language : French
Default : No
Forced : No

Text #17
ID : 19
Format : UTF-8
Codec ID : S_TEXT/UTF8
Codec ID/Info : UTF-8 Plain Text
Duration : 1 h 38 min
Bit rate : 56 b/s
Frame rate : 0.184 FPS
Count of elements : 1094
Stream size : 41.2 KiB (0%)
Title : German
Language : German
Default : No
Forced : No

Text #18
ID : 20
Format : UTF-8
Codec ID : S_TEXT/UTF8
Codec ID/Info : UTF-8 Plain Text
Duration : 1 h 43 min
Bit rate : 79 b/s
Frame rate : 0.167 FPS
Count of elements : 1042
Stream size : 60.7 KiB (0%)
Title : Greek
Language : Greek
Default : No
Forced : No

Text #19
ID : 21
Format : UTF-8
Codec ID : S_TEXT/UTF8
Codec ID/Info : UTF-8 Plain Text
Duration : 1 h 43 min
Bit rate : 63 b/s
Frame rate : 0.180 FPS
Count of elements : 1121
Stream size : 48.1 KiB (0%)
Title : Hebrew
Language : Hebrew
Default : No
Forced : No

Text #20
ID : 22
Format : UTF-8
Codec ID : S_TEXT/UTF8
Codec ID/Info : UTF-8 Plain Text
Duration : 1 h 43 min
Bit rate : 136 b/s
Frame rate : 0.181 FPS
Count of elements : 1124
Stream size : 103 KiB (0%)
Title : Hindi
Language : Hindi
Default : No
Forced : No

Text #21
ID : 23
Format : UTF-8
Codec ID : S_TEXT/UTF8
Codec ID/Info : UTF-8 Plain Text
Duration : 1 h 43 min
Bit rate : 47 b/s
Frame rate : 0.178 FPS
Count of elements : 1111
Stream size : 36.1 KiB (0%)
Title : Hungarian
Language : Hungarian
Default : No
Forced : No

Text #22
ID : 24
Format : UTF-8
Codec ID : S_TEXT/UTF8
Codec ID/Info : UTF-8 Plain Text
Duration : 1 h 43 min
Bit rate : 46 b/s
Frame rate : 0.179 FPS
Count of elements : 1117
Stream size : 35.7 KiB (0%)
Title : Indonesian
Language : Indonesian
Default : No
Forced : No

Text #23
ID : 25
Format : UTF-8
Codec ID : S_TEXT/UTF8
Codec ID/Info : UTF-8 Plain Text
Duration : 1 h 38 min
Bit rate : 52 b/s
Frame rate : 0.189 FPS
Count of elements : 1123
Stream size : 37.8 KiB (0%)
Title : Italian
Language : Italian
Default : No
Forced : No

Text #24
ID : 26
Format : UTF-8
Codec ID : S_TEXT/UTF8
Codec ID/Info : UTF-8 Plain Text
Duration : 1 h 43 min
Bit rate : 41 b/s
Frame rate : 0.180 FPS
Count of elements : 1117
Stream size : 31.5 KiB (0%)
Title : Japanese
Language : Japanese
Default : No
Forced : No

Text #25
ID : 27
Format : UTF-8
Codec ID : S_TEXT/UTF8
Codec ID/Info : UTF-8 Plain Text
Duration : 1 h 43 min
Bit rate : 53 b/s
Frame rate : 0.180 FPS
Count of elements : 1123
Stream size : 40.9 KiB (0%)
Title : Korean
Language : Korean
Default : No
Forced : No

Text #26
ID : 28
Format : UTF-8
Codec ID : S_TEXT/UTF8
Codec ID/Info : UTF-8 Plain Text
Duration : 1 h 43 min
Bit rate : 49 b/s
Frame rate : 0.179 FPS
Count of elements : 1113
Stream size : 37.9 KiB (0%)
Title : Latin America Spanish
Language : Spanish
Default : No
Forced : No

Text #27
ID : 29
Format : UTF-8
Codec ID : S_TEXT/UTF8
Codec ID/Info : UTF-8 Plain Text
Duration : 1 h 43 min
Bit rate : 48 b/s
Frame rate : 0.176 FPS
Count of elements : 1096
Stream size : 37.2 KiB (0%)
Title : Latvian
Language : Latvian
Default : No
Forced : No

Text #28
ID : 30
Format : UTF-8
Codec ID : S_TEXT/UTF8
Codec ID/Info : UTF-8 Plain Text
Duration : 1 h 43 min
Bit rate : 46 b/s
Frame rate : 0.178 FPS
Count of elements : 1107
Stream size : 35.3 KiB (0%)
Title : Lithuanian
Language : Lithuanian
Default : No
Forced : No

Text #29
ID : 31
Format : UTF-8
Codec ID : S_TEXT/UTF8
Codec ID/Info : UTF-8 Plain Text
Duration : 1 h 43 min
Bit rate : 47 b/s
Frame rate : 0.179 FPS
Count of elements : 1117
Stream size : 36.2 KiB (0%)
Title : Malay
Language : Malay
Default : No
Forced : No

Text #30
ID : 32
Format : UTF-8
Codec ID : S_TEXT/UTF8
Codec ID/Info : UTF-8 Plain Text
Duration : 1 h 43 min
Bit rate : 45 b/s
Frame rate : 0.146 FPS
Count of elements : 906
Stream size : 34.2 KiB (0%)
Title : Norwegian
Language : Norwegian
Default : No
Forced : No

Text #31
ID : 33
Format : UTF-8
Codec ID : S_TEXT/UTF8
Codec ID/Info : UTF-8 Plain Text
Duration : 1 h 43 min
Bit rate : 43 b/s
Frame rate : 0.170 FPS
Count of elements : 1061
Stream size : 33.2 KiB (0%)
Title : Polish
Language : Polish
Default : No
Forced : No

Text #32
ID : 34
Format : UTF-8
Codec ID : S_TEXT/UTF8
Codec ID/Info : UTF-8 Plain Text
Duration : 1 h 43 min
Bit rate : 48 b/s
Frame rate : 0.178 FPS
Count of elements : 1107
Stream size : 36.7 KiB (0%)
Title : Portuguese
Language : Portuguese
Default : No
Forced : No

Text #33
ID : 35
Format : UTF-8
Codec ID : S_TEXT/UTF8
Codec ID/Info : UTF-8 Plain Text
Duration : 1 h 43 min
Bit rate : 45 b/s
Frame rate : 0.176 FPS
Count of elements : 1095
Stream size : 34.4 KiB (0%)
Title : Portuguese Brazilian
Language : Portuguese
Default : No
Forced : No

Text #34
ID : 36
Format : UTF-8
Codec ID : S_TEXT/UTF8
Codec ID/Info : UTF-8 Plain Text
Duration : 1 h 43 min
Bit rate : 71 b/s
Frame rate : 0.180 FPS
Count of elements : 1121
Stream size : 54.0 KiB (0%)
Title : Russian
Language : Russian
Default : No
Forced : No

Text #35
ID : 37
Format : UTF-8
Codec ID : S_TEXT/UTF8
Codec ID/Info : UTF-8 Plain Text
Duration : 1 h 43 min
Bit rate : 45 b/s
Frame rate : 0.179 FPS
Count of elements : 1113
Stream size : 34.8 KiB (0%)
Title : Slovak
Language : Slovak
Default : No
Forced : No

Text #36
ID : 38
Format : UTF-8
Codec ID : S_TEXT/UTF8
Codec ID/Info : UTF-8 Plain Text
Duration : 1 h 43 min
Bit rate : 38 b/s
Frame rate : 0.152 FPS
Count of elements : 943
Stream size : 29.4 KiB (0%)
Title : Slovenian
Language : Slovenian
Default : No
Forced : No

Text #37
ID : 39
Format : UTF-8
Codec ID : S_TEXT/UTF8
Codec ID/Info : UTF-8 Plain Text
Duration : 1 h 43 min
Bit rate : 47 b/s
Frame rate : 0.168 FPS
Count of elements : 1048
Stream size : 35.7 KiB (0%)
Title : Swedish
Language : Swedish
Default : No
Forced : No

Text #38
ID : 40
Format : UTF-8
Codec ID : S_TEXT/UTF8
Codec ID/Info : UTF-8 Plain Text
Duration : 1 h 43 min
Bit rate : 147 b/s
Frame rate : 0.180 FPS
Count of elements : 1122
Stream size : 112 KiB (0%)
Title : Tamil
Language : Tamil
Default : No
Forced : No

Text #39
ID : 41
Format : UTF-8
Codec ID : S_TEXT/UTF8
Codec ID/Info : UTF-8 Plain Text
Duration : 1 h 43 min
Bit rate : 143 b/s
Frame rate : 0.180 FPS
Count of elements : 1122
Stream size : 109 KiB (0%)
Title : Telugu
Language : Telugu
Default : No
Forced : No

Text #40
ID : 42
Format : UTF-8
Codec ID : S_TEXT/UTF8
Codec ID/Info : UTF-8 Plain Text
Duration : 1 h 43 min
Bit rate : 119 b/s
Frame rate : 0.180 FPS
Count of elements : 1122
Stream size : 90.6 KiB (0%)
Title : Thai
Language : Thai
Default : No
Forced : No

Text #41
ID : 43
Format : UTF-8
Codec ID : S_TEXT/UTF8
Codec ID/Info : UTF-8 Plain Text
Duration : 1 h 43 min
Bit rate : 47 b/s
Frame rate : 0.178 FPS
Count of elements : 1110
Stream size : 35.8 KiB (0%)
Title : Turkish
Language : Turkish
Default : No
Forced : No

Text #42
ID : 44
Format : UTF-8
Codec ID : S_TEXT/UTF8
Codec ID/Info : UTF-8 Plain Text
Duration : 1 h 43 min
Bit rate : 69 b/s
Frame rate : 0.180 FPS
Count of elements : 1120
Stream size : 53.2 KiB (0%)
Title : Ukrainian
Language : Ukrainian
Default : No
Forced : No

Text #43
ID : 45
Format : UTF-8
Codec ID : S_TEXT/UTF8
Codec ID/Info : UTF-8 Plain Text
Duration : 1 h 43 min
Bit rate : 60 b/s
Frame rate : 0.179 FPS
Count of elements : 1117
Stream size : 46.0 KiB (0%)
Title : Vietnamese
Language : Vietnamese
Default : No
Forced : No

[collapse]
Download Link(s)

Download

Direct download files get automatically deleted after a month or so. Posted on : 10/21/2022

[collapse]
Magnet Link

Magnet

Raymond.and.Ray.2022.1080p.WEB.H264-NAISU-7.90 GB

[collapse]

You may also like...

error: nah :p~