Rambo: First Blood Part II (1985)

R | 1h 26min | Action, Adventure, Thriller

Rambo returns to the jungles of Vietnam on a mission to infiltrate an enemy base-camp and rescue the American POWs still held captive there.

Watch trailer

Media information

General
Format : Matroska
Format version : Version 4
File size : 1.85 GiB
Duration : 1 h 35 min
Overall bit rate : 2 759 kb/s
Movie name : Rambo.First.Blood.Part.II.1985.REMASTERED.1080p.10bit.BluRay.6CH.x265.HEVC

Video
ID : 1
Format : HEVC
Format/Info : High Efficiency Video Coding
Format profile : Main 10@L4@Main
Codec ID : V_MPEGH/ISO/HEVC
Duration : 1 h 35 min
Bit rate : 2 367 kb/s
Width : 1 920 pixels
Height : 1 080 pixels
Display aspect ratio : 16:9
Frame rate mode : Constant
Frame rate : 24.000 FPS
Color space : YUV
Chroma subsampling : 4:2:0 (Type 0)
Bit depth : 10 bits
Bits/(Pixel*Frame) : 0.048
Stream size : 1.58 GiB (86%)
Default : Yes
Forced : No
Color range : Limited
Color primaries : BT.709
Transfer characteristics : BT.709
Matrix coefficients : BT.709

Audio
ID : 2
Format : AAC LC
Codec ID : A_AAC-2
Duration : 1 h 35 min
Bit rate : 384 kb/s
Channel(s) : 6 channels
Channel layout : L R C Cb Lb Rb
Sampling rate : 48.0 kHz
Frame rate : 46.875 FPS (1024 SPF)
Compression mode : Lossy
Stream size : 264 MiB (14%)
Language : English
Default : Yes
Forced : No

Text
ID : 3
Format : PGS
Muxing mode : zlib
Codec ID : S_HDMV/PGS
Duration : 1 h 34 min
Bit rate : 12.3 kb/s
Frame rate : 0.155 FPS
Count of elements : 884
Stream size : 8.35 MiB (0%)
Language : English
Default : Yes
Forced : No

[collapse]
Download Link(s)

Download

Direct download files get automatically deleted after a month or so. Posted on : 01/03/2023

[collapse]
Magnet Link

Magnet

Rambo.First.Blood.Part.II.1985.REMASTERED.1080p.BluRay.REMUX.AVC.DTS-HD.MA.5.1-FGT-22.81 GB

[collapse]

Media information

General
Format : Matroska
Format version : Version 4
File size : 986 MiB
Duration : 1 h 35 min
Overall bit rate : 1 439 kb/s
Movie name : Rambo.First.Blood.Part.II.1985.REMASTERED.720p.10bit.BluRay.6CH.x265.HEVC

Video
ID : 1
Format : HEVC
Format/Info : High Efficiency Video Coding
Format profile : Main [email protected]@Main
Codec ID : V_MPEGH/ISO/HEVC
Duration : 1 h 35 min
Bit rate : 1 143 kb/s
Width : 1 280 pixels
Height : 720 pixels
Display aspect ratio : 16:9
Frame rate mode : Constant
Frame rate : 24.000 FPS
Color space : YUV
Chroma subsampling : 4:2:0 (Type 0)
Bit depth : 10 bits
Bits/(Pixel*Frame) : 0.052
Stream size : 783 MiB (79%)
Default : Yes
Forced : No
Color range : Limited
Color primaries : BT.709
Transfer characteristics : BT.709
Matrix coefficients : BT.709

Audio
ID : 2
Format : AAC LC
Codec ID : A_AAC-2
Duration : 1 h 35 min
Bit rate : 288 kb/s
Channel(s) : 6 channels
Channel layout : L R C Cb Lb Rb
Sampling rate : 48.0 kHz
Frame rate : 46.875 FPS (1024 SPF)
Compression mode : Lossy
Stream size : 198 MiB (20%)
Language : English
Default : Yes
Forced : No

Text
ID : 3
Format : PGS
Muxing mode : zlib
Codec ID : S_HDMV/PGS
Duration : 1 h 34 min
Bit rate : 12.3 kb/s
Frame rate : 0.155 FPS
Count of elements : 884
Stream size : 8.35 MiB (1%)
Language : English
Default : Yes
Forced : No

[collapse]
Download Link(s)

Download

Direct download files get automatically deleted after a month or so. Posted on : 01/03/2023

[collapse]
Magnet Link

Magnet

Rambo.First.Blood.Part.II.1985.REMASTERED.1080p.BluRay.REMUX.AVC.DTS-HD.MA.5.1-FGT-22.81 GB

[collapse]

You may also like...

error: nah :p~