Puppet Master vs Demonic Toys (2004)

Not Rated | 1h 28min | Comedy, Fantasy, Horror

A group of toymakers seek to use Andre Toulon’s formula, now in the hands of Toulon’s great-nephew Robert, to give life to a line of killer toys that they plan to unleash on Christmas Eve.

Watch trailer

Media information

General
Format : Matroska
Format version : Version 4
File size : 1.13 GiB
Duration : 1 h 27 min
Overall bit rate : 1 831 kb/s
Movie name : Puppet.Master.vs.Demonic.Toys.2004.720p.10bit.DvdRip.2CH.x265.HEVC

Video
ID : 1
Format : HEVC
Format/Info : High Efficiency Video Coding
Format profile : Main 10@L3@Main
Codec ID : V_MPEGH/ISO/HEVC
Duration : 1 h 27 min
Bit rate : 1 699 kb/s
Width : 720 pixels
Height : 412 pixels
Display aspect ratio : 16:9
Frame rate mode : Constant
Frame rate : 29.970 (30000/1001) FPS
Color space : YUV
Chroma subsampling : 4:2:0 (Type 0)
Bit depth : 10 bits
Bits/(Pixel*Frame) : 0.191
Stream size : 1.04 GiB (93%)
Default : Yes
Forced : No
Color range : Limited
Color primaries : BT.601 NTSC
Transfer characteristics : BT.709
Matrix coefficients : BT.601

Audio
ID : 2
Format : AAC LC
Codec ID : A_AAC-2
Duration : 1 h 27 min
Bit rate : 132 kb/s
Channel(s) : 2 channels
Channel layout : L R
Sampling rate : 48.0 kHz
Frame rate : 46.875 FPS (1024 SPF)
Compression mode : Lossy
Delay relative to video : -21 ms
Stream size : 81.8 MiB (7%)
Language : English
Default : Yes
Forced : No

[collapse]
Download Link(s)

Download

Direct download files get automatically deleted after a month or so. Posted on : 07/20/2022

[collapse]
Magnet Link

Magnet

Puppet.Master.Complete.Collection.1080p.BluRay.H264.AC3.Will1869-30.64 GB

[collapse]

You may also like...

error: nah :p~