Puppet Master: The Littlest Reich (2018)

Not Rated | 1h 30min | Comedy, Horror

All hell breaks loose when a strange force animates the puppets up for auction at a convention, setting them on a bloody killing spree that’s motivated by an evil as old as time.

Watch trailer

Media information

General
Format : Matroska
Format version : Version 4
File size : 1.36 GiB
Duration : 1 h 29 min
Overall bit rate : 2 171 kb/s
Movie name : Puppet.Master.The.Littlest.Reich.2018.1080p.10bit.BluRay.6CH.x265.HEVC

Video
ID : 1
Format : HEVC
Format/Info : High Efficiency Video Coding
Format profile : Main 10@L4@Main
Codec ID : V_MPEGH/ISO/HEVC
Duration : 1 h 29 min
Bit rate : 1 880 kb/s
Width : 1 920 pixels
Height : 808 pixels
Display aspect ratio : 2.40:1
Frame rate mode : Constant
Frame rate : 23.976 (24000/1001) FPS
Color space : YUV
Chroma subsampling : 4:2:0 (Type 0)
Bit depth : 10 bits
Bits/(Pixel*Frame) : 0.051
Stream size : 1.18 GiB (87%)
Default : Yes
Forced : No
Color range : Limited

Audio
ID : 2
Format : AAC LC
Codec ID : A_AAC-2
Duration : 1 h 29 min
Bit rate : 288 kb/s
Channel(s) : 6 channels
Channel layout : L R C Cb Lb Rb
Sampling rate : 48.0 kHz
Frame rate : 46.875 FPS (1024 SPF)
Compression mode : Lossy
Delay relative to video : -21 ms
Stream size : 186 MiB (13%)
Language : English
Default : Yes
Forced : No

Text
ID : 3
Format : UTF-8
Codec ID : S_TEXT/UTF8
Codec ID/Info : UTF-8 Plain Text
Duration : 1 h 29 min
Bit rate : 53 b/s
Frame rate : 0.185 FPS
Count of elements : 996
Stream size : 35.5 KiB (0%)
Language : English
Default : Yes
Forced : No

[collapse]
Download Link(s)

Download

Direct download files get automatically deleted after a month or so. Posted on : 07/18/2022

[collapse]
Magnet Link

Magnet

Puppet.Master.The.Littlest.Reich.2018.1080p.BluRay.x264-SADPANDA-6.56 GB

[collapse]

Media information

General
Format : Matroska
Format version : Version 4
File size : 706 MiB
Duration : 1 h 29 min
Overall bit rate : 1 097 kb/s
Movie name : Puppet.Master.The.Littlest.Reich.2018.720p.10bit.BluRay.6CH.x265.HEVC

Video
ID : 1
Format : HEVC
Format/Info : High Efficiency Video Coding
Format profile : Main [email protected]@Main
Codec ID : V_MPEGH/ISO/HEVC
Duration : 1 h 29 min
Bit rate : 902 kb/s
Width : 1 280 pixels
Height : 536 pixels
Display aspect ratio : 2.40:1
Frame rate mode : Constant
Frame rate : 23.976 (24000/1001) FPS
Color space : YUV
Chroma subsampling : 4:2:0 (Type 0)
Bit depth : 10 bits
Bits/(Pixel*Frame) : 0.055
Stream size : 581 MiB (82%)
Default : Yes
Forced : No
Color range : Limited

Audio
ID : 2
Format : AAC LC
Codec ID : A_AAC-2
Duration : 1 h 29 min
Bit rate : 192 kb/s
Channel(s) : 6 channels
Channel layout : L R C Cb Lb Rb
Sampling rate : 48.0 kHz
Frame rate : 46.875 FPS (1024 SPF)
Compression mode : Lossy
Delay relative to video : -21 ms
Stream size : 124 MiB (18%)
Language : English
Default : Yes
Forced : No

Text
ID : 3
Format : UTF-8
Codec ID : S_TEXT/UTF8
Codec ID/Info : UTF-8 Plain Text
Duration : 1 h 29 min
Bit rate : 53 b/s
Frame rate : 0.185 FPS
Count of elements : 996
Stream size : 35.5 KiB (0%)
Language : English
Default : Yes
Forced : No

[collapse]
Download Link(s)

Download

Direct download files get automatically deleted after a month or so. Posted on : 07/18/2022

[collapse]
Magnet Link

Magnet

Puppet.Master.The.Littlest.Reich.2018.1080p.BluRay.x264-SADPANDA-6.56 GB

[collapse]

You may also like...

error: nah :p~