Puppet Master: Axis Termination (2017)

Not Rated | 1h 15min | Fantasy, Horror, Sci-Fi

In 1942 a soldier and a special division of psychics working for the American military must use the help of Andre Toulon’s puppets to infiltrate a secret Nazi headquarters and put an end to the evil experiments being conducted there.

Watch trailer

Media information

General
Format : Matroska
Format version : Version 4
File size : 1.13 GiB
Duration : 1 h 14 min
Overall bit rate : 2 161 kb/s
Movie name : Puppet.Master.Axis.Termination.2017.1080p.10bit.BluRay.6CH.x265.HEVC

Video
ID : 1
Format : HEVC
Format/Info : High Efficiency Video Coding
Format profile : Main 10@L4@Main
Codec ID : V_MPEGH/ISO/HEVC
Duration : 1 h 14 min
Bit rate : 1 871 kb/s
Width : 1 920 pixels
Height : 1 080 pixels
Display aspect ratio : 16:9
Frame rate mode : Variable
Frame rate : 23.899 FPS
Original frame rate : 23.976 (24000/1001) FPS
Color space : YUV
Chroma subsampling : 4:2:0 (Type 0)
Bit depth : 10 bits
Bits/(Pixel*Frame) : 0.038
Stream size : 1 001 MiB (87%)
Default : Yes
Forced : No
Color range : Limited
Color primaries : BT.709
Transfer characteristics : BT.709
Matrix coefficients : BT.709

Audio
ID : 2
Format : AAC LC
Codec ID : A_AAC-2
Duration : 1 h 14 min
Bit rate : 288 kb/s
Channel(s) : 6 channels
Channel layout : L R C Cb Lb Rb
Sampling rate : 48.0 kHz
Frame rate : 46.875 FPS (1024 SPF)
Compression mode : Lossy
Delay relative to video : -21 ms
Stream size : 154 MiB (13%)
Language : English
Default : Yes
Forced : No

[collapse]
Download Link(s)

Download

Direct download files get automatically deleted after a month or so. Posted on : 07/20/2022

[collapse]
Magnet Link

Magnet

Puppet.Master.Complete.Collection.1080p.BluRay.H264.AC3.Will1869-30.64 GB

[collapse]

Media information

General
Format : Matroska
Format version : Version 4
File size : 585 MiB
Duration : 1 h 14 min
Overall bit rate : 1 093 kb/s
Movie name : Puppet.Master.Axis.Termination.2017.720p.10bit.BluRay.6CH.x265.HEVC

Video
ID : 1
Format : HEVC
Format/Info : High Efficiency Video Coding
Format profile : Main [email protected]@Main
Codec ID : V_MPEGH/ISO/HEVC
Duration : 1 h 14 min
Bit rate : 899 kb/s
Width : 1 280 pixels
Height : 720 pixels
Display aspect ratio : 16:9
Frame rate mode : Variable
Frame rate : 23.899 FPS
Original frame rate : 23.976 (24000/1001) FPS
Color space : YUV
Chroma subsampling : 4:2:0 (Type 0)
Bit depth : 10 bits
Bits/(Pixel*Frame) : 0.041
Stream size : 481 MiB (82%)
Default : Yes
Forced : No
Color range : Limited
Color primaries : BT.709
Transfer characteristics : BT.709
Matrix coefficients : BT.709

Audio
ID : 2
Format : AAC LC
Codec ID : A_AAC-2
Duration : 1 h 14 min
Bit rate : 192 kb/s
Channel(s) : 6 channels
Channel layout : L R C Cb Lb Rb
Sampling rate : 48.0 kHz
Frame rate : 46.875 FPS (1024 SPF)
Compression mode : Lossy
Delay relative to video : -21 ms
Stream size : 103 MiB (18%)
Language : English
Default : Yes
Forced : No

[collapse]
Download Link(s)

Download

Direct download files get automatically deleted after a month or so. Posted on : 07/20/2022

[collapse]
Magnet Link

Magnet

Puppet.Master.Complete.Collection.1080p.BluRay.H264.AC3.Will1869-30.64 GB

[collapse]

You may also like...

error: nah :p~