Pranaam (2019)

Action, Crime, Drama | 9 August 2019 (India)

A peon’s son who is an aspiring IAS officer is compelled to change his path leading him to turn into a gangster.

Watch trailer

Media information

General
Format : Matroska
Format version : Version 4
File size : 1.00 GiB
Duration : 1 h 56 min
Overall bit rate mode : Variable
Overall bit rate : 1 228 kb/s
Movie name : Pranaam.2019.Hindi.720p.WEB-DL.2CH.x264.AVC
Encoded date : UTC 2019-11-26 14:39:22
Writing application : mkvmerge v40.0.0 (‘Old Town Road + Pony’) 32-bit
Writing library : libebml v1.3.9 + libmatroska v1.5.2

Video
ID : 1
Format : AVC
Format/Info : Advanced Video Codec
Format profile : [email protected]
Format settings : CABAC / 7 Ref Frames
Format settings, CABAC : Yes
Format settings, Reference frames : 7 frames
Codec ID : V_MPEG4/ISO/AVC
Duration : 1 h 56 min
Bit rate mode : Variable
Bit rate : 1 035 kb/s
Maximum bit rate : 62.5 Mb/s
Width : 1 280 pixels
Height : 536 pixels
Display aspect ratio : 2.40:1
Frame rate mode : Constant
Frame rate : 24.000 FPS
Color space : YUV
Chroma subsampling : 4:2:0
Bit depth : 8 bits
Scan type : Progressive
Bits/(Pixel*Frame) : 0.063
Stream size : 863 MiB (84%)
Language : Hindi
Default : Yes
Forced : Yes

Audio
ID : 2
Format : AAC LC SBR
Commercial name : HE-AAC
Format settings : Explicit
Codec ID : A_AAC-2
Duration : 1 h 56 min
Bit rate : 192 kb/s
Channel(s) : 6 channels
Channel layout : C L R Ls Rs LFE
Sampling rate : 48.0 kHz
Frame rate : 23.438 FPS (2048 SPF)
Compression mode : Lossy
Delay relative to video : 31 ms
Stream size : 160 MiB (16%)
Language : Hindi
Default : Yes
Forced : Yes

Text
ID : 3
Format : UTF-8
Codec ID : S_TEXT/UTF8
Codec ID/Info : UTF-8 Plain Text
Duration : 1 h 50 min
Bit rate : 52 b/s
Count of elements : 1122
Stream size : 42.3 KiB (0%)
Title : English_Full
Language : English
Default : Yes
Forced : Yes

[collapse]
Download Link(s)

Download

Direct download files get automatically deleted after a month or so. Posted on : 26/11/2019

[collapse]
Magnet Link

Magnet

Pranaam.2019.Hindi.1080p.WEB.DL.DD+5.1.x264-4.1 GB

[collapse]

You may also like...

error: nah :p~