Pirates of the Caribbean: On Stranger Tides (2011)

PG-13 | 2h 16min | Action, Adventure, Fantasy

Jack Sparrow and Barbossa embark on a quest to find the elusive fountain of youth, only to discover that Blackbeard and his daughter are after it too.

Watch trailer

Media information

General
Format : Matroska
Format version : Version 4
File size : 2.47 GiB
Duration : 2 h 16 min
Overall bit rate : 2 588 kb/s
Movie name : Pirates.Of.The.Caribbean.On.Stranger.Tides.2011.1080p.10bit.BluRay.6CH.x265.HEVC

Video
ID : 1
Format : HEVC
Format/Info : High Efficiency Video Coding
Format profile : Main 10@L4@Main
Codec ID : V_MPEGH/ISO/HEVC
Duration : 2 h 16 min
Bit rate : 2 201 kb/s
Width : 1 920 pixels
Height : 800 pixels
Display aspect ratio : 2.40:1
Frame rate mode : Variable
Frame rate : 23.976 FPS
Color space : YUV
Chroma subsampling : 4:2:0 (Type 0)
Bit depth : 10 bits
Bits/(Pixel*Frame) : 0.060
Stream size : 2.10 GiB (85%)
Default : Yes
Forced : No
Color range : Limited

Audio
ID : 2
Format : AAC LC
Codec ID : A_AAC-2
Duration : 2 h 16 min
Bit rate : 384 kb/s
Channel(s) : 6 channels
Channel layout : L R C Cb Lb Rb
Sampling rate : 48.0 kHz
Frame rate : 46.875 FPS (1024 SPF)
Compression mode : Lossy
Stream size : 375 MiB (15%)
Language : English
Default : Yes
Forced : No

Text
ID : 3
Format : UTF-8
Codec ID : S_TEXT/UTF8
Codec ID/Info : UTF-8 Plain Text
Duration : 2 h 16 min
Bit rate : 50 b/s
Count of elements : 1534
Stream size : 50.4 KiB (0%)
Language : English
Default : Yes
Forced : No

[collapse]
Download Link(s)

Download

Direct download files get automatically deleted after a month or so. Posted on : 08/27/2021

[collapse]
Magnet Link

Magnet

Pirates.Of.The.Caribbean.On.Stranger.Tides.2011.1080p.BluRay.x264-TWiZTED-11.00 GB

[collapse]

Media information

General
Format : Matroska
Format version : Version 4
File size : 1.33 GiB
Duration : 2 h 16 min
Overall bit rate : 1 392 kb/s
Movie name : Pirates.Of.The.Caribbean.On.Stranger.Tides.2011.720p.10bit.BluRay.6CH.x265.HEVC

Video
ID : 1
Format : HEVC
Format/Info : High Efficiency Video Coding
Format profile : Main [email protected]@Main
Codec ID : V_MPEGH/ISO/HEVC
Duration : 2 h 16 min
Bit rate : 1 101 kb/s
Width : 1 280 pixels
Height : 536 pixels
Display aspect ratio : 2.40:1
Frame rate mode : Variable
Frame rate : 23.976 FPS
Color space : YUV
Chroma subsampling : 4:2:0 (Type 0)
Bit depth : 10 bits
Bits/(Pixel*Frame) : 0.067
Stream size : 1.05 GiB (79%)
Default : Yes
Forced : No
Color range : Limited

Audio
ID : 2
Format : AAC LC
Codec ID : A_AAC-2
Duration : 2 h 16 min
Bit rate : 288 kb/s
Channel(s) : 6 channels
Channel layout : L R C Cb Lb Rb
Sampling rate : 48.0 kHz
Frame rate : 46.875 FPS (1024 SPF)
Compression mode : Lossy
Stream size : 282 MiB (21%)
Language : English
Default : Yes
Forced : No

Text
ID : 3
Format : UTF-8
Codec ID : S_TEXT/UTF8
Codec ID/Info : UTF-8 Plain Text
Duration : 2 h 16 min
Bit rate : 50 b/s
Count of elements : 1534
Stream size : 50.4 KiB (0%)
Language : English
Default : Yes
Forced : No

[collapse]
Download Link(s)

Download

Direct download files get automatically deleted after a month or so. Posted on : 08/27/2021

[collapse]
Magnet Link

Magnet

Pirates.Of.The.Caribbean.On.Stranger.Tides.2011.1080p.BluRay.x264-TWiZTED-11.00 GB

[collapse]

You may also like...

error: nah :p~