Photocopier (2021)

TV-MA | 2h 10min | Crime, Drama, Mystery

After losing her scholarship when photos of her at a party surface online, a student pairs with a photocopy worker to piece together what happened.

Watch trailer

Media information

General
Format : Matroska
Format version : Version 4
File size : 1.44 GiB
Duration : 2 h 10 min
Overall bit rate : 1 579 kb/s
Movie name : Photocopier.A.K.A.Penyalin.Cahaya.2021.INDONESIAN.1080p.10bit.WEBRip.6CH.x265.HEVC

Video
ID : 1
Format : HEVC
Format/Info : High Efficiency Video Coding
Format profile : Main [email protected]@Main
Codec ID : V_MPEGH/ISO/HEVC
Duration : 2 h 10 min
Bit rate : 1 398 kb/s
Width : 1 920 pixels
Height : 1 016 pixels
Display aspect ratio : 1.890
Frame rate mode : Constant
Frame rate : 24.000 FPS
Color space : YUV
Chroma subsampling : 4:2:0
Bit depth : 10 bits
Bits/(Pixel*Frame) : 0.030
Stream size : 1.27 GiB (88%)
Default : Yes
Forced : No

Audio
ID : 2
Format : AAC LC SBR
Commercial name : HE-AAC
Format settings : Explicit
Codec ID : A_AAC-2
Duration : 2 h 10 min
Bit rate : 176 kb/s
Channel(s) : 6 channels
Channel layout : C L R Ls Rs LFE
Sampling rate : 48.0 kHz
Frame rate : 23.438 FPS (2048 SPF)
Compression mode : Lossy
Delay relative to video : 23 ms
Stream size : 164 MiB (11%)
Language : Indonesian
Default : Yes
Forced : No

Text #1
ID : 3
Format : UTF-8
Codec ID : S_TEXT/UTF8
Codec ID/Info : UTF-8 Plain Text
Duration : 2 h 7 min
Bit rate : 74 b/s
Count of elements : 1824
Stream size : 69.8 KiB (0%)
Title : SDH
Language : English
Default : Yes
Forced : No

Text #2
ID : 4
Format : UTF-8
Codec ID : S_TEXT/UTF8
Codec ID/Info : UTF-8 Plain Text
Duration : 1 h 22 min
Bit rate : 0 b/s
Count of elements : 5
Stream size : 67.0 Bytes (0%)
Title : Forced
Language : English
Default : No
Forced : Yes

Text #3
ID : 5
Format : UTF-8
Codec ID : S_TEXT/UTF8
Codec ID/Info : UTF-8 Plain Text
Duration : 2 h 5 min
Bit rate : 54 b/s
Count of elements : 1531
Stream size : 50.0 KiB (0%)
Language : English
Default : No
Forced : No

Text #4
ID : 6
Format : UTF-8
Codec ID : S_TEXT/UTF8
Codec ID/Info : UTF-8 Plain Text
Duration : 2 h 1 min
Bit rate : 68 b/s
Count of elements : 1585
Stream size : 61.1 KiB (0%)
Language : English
Default : No
Forced : No

Text #5
ID : 7
Format : UTF-8
Codec ID : S_TEXT/UTF8
Codec ID/Info : UTF-8 Plain Text
Duration : 2 h 9 min
Bit rate : 0 b/s
Count of elements : 23
Stream size : 528 Bytes (0%)
Title : Forced
Language : Indonesian
Default : No
Forced : No

Text #6
ID : 8
Format : UTF-8
Codec ID : S_TEXT/UTF8
Codec ID/Info : UTF-8 Plain Text
Duration : 2 h 5 min
Bit rate : 54 b/s
Count of elements : 1607
Stream size : 49.9 KiB (0%)
Language : Indonesian
Default : No
Forced : No

Text #7
ID : 9
Format : UTF-8
Codec ID : S_TEXT/UTF8
Codec ID/Info : UTF-8 Plain Text
Duration : 2 h 2 min
Bit rate : 67 b/s
Count of elements : 1753
Stream size : 61.0 KiB (0%)
Title : SDH
Language : Indonesian
Default : No
Forced : No

Text #8
ID : 10
Format : UTF-8
Codec ID : S_TEXT/UTF8
Codec ID/Info : UTF-8 Plain Text
Duration : 2 h 9 min
Bit rate : 80 b/s
Count of elements : 1555
Stream size : 76.5 KiB (0%)
Language : Arabic
Default : No
Forced : No

Text #9
ID : 11
Format : UTF-8
Codec ID : S_TEXT/UTF8
Codec ID/Info : UTF-8 Plain Text
Duration : 2 h 9 min
Bit rate : 50 b/s
Count of elements : 1549
Stream size : 48.0 KiB (0%)
Language : Czech
Default : No
Forced : No

Text #10
ID : 12
Format : UTF-8
Codec ID : S_TEXT/UTF8
Codec ID/Info : UTF-8 Plain Text
Duration : 2 h 9 min
Bit rate : 48 b/s
Count of elements : 1547
Stream size : 45.9 KiB (0%)
Language : Danish
Default : No
Forced : No

Text #11
ID : 13
Format : UTF-8
Codec ID : S_TEXT/UTF8
Codec ID/Info : UTF-8 Plain Text
Duration : 2 h 7 min
Bit rate : 53 b/s
Count of elements : 1547
Stream size : 49.6 KiB (0%)
Language : German
Default : No
Forced : No

Text #12
ID : 14
Format : UTF-8
Codec ID : S_TEXT/UTF8
Codec ID/Info : UTF-8 Plain Text
Duration : 2 h 9 min
Bit rate : 84 b/s
Count of elements : 1549
Stream size : 80.1 KiB (0%)
Language : Greek
Default : No
Forced : No

Text #13
ID : 15
Format : UTF-8
Codec ID : S_TEXT/UTF8
Codec ID/Info : UTF-8 Plain Text
Duration : 2 h 9 min
Bit rate : 49 b/s
Count of elements : 1553
Stream size : 47.5 KiB (0%)
Language : Spanish
Default : No
Forced : No

Text #14
ID : 16
Format : UTF-8
Codec ID : S_TEXT/UTF8
Codec ID/Info : UTF-8 Plain Text
Duration : 2 h 9 min
Bit rate : 50 b/s
Count of elements : 1550
Stream size : 47.7 KiB (0%)
Title : European
Language : Spanish
Default : No
Forced : No

Text #15
ID : 17
Format : UTF-8
Codec ID : S_TEXT/UTF8
Codec ID/Info : UTF-8 Plain Text
Duration : 2 h 9 min
Bit rate : 48 b/s
Count of elements : 1527
Stream size : 45.6 KiB (0%)
Language : Finnish
Default : No
Forced : No

Text #16
ID : 18
Format : UTF-8
Codec ID : S_TEXT/UTF8
Codec ID/Info : UTF-8 Plain Text
Duration : 2 h 9 min
Bit rate : 49 b/s
Count of elements : 1541
Stream size : 46.8 KiB (0%)
Language : French
Default : No
Forced : No

Text #17
ID : 19
Format : UTF-8
Codec ID : S_TEXT/UTF8
Codec ID/Info : UTF-8 Plain Text
Duration : 2 h 9 min
Bit rate : 74 b/s
Count of elements : 1548
Stream size : 70.9 KiB (0%)
Language : Hebrew
Default : No
Forced : No

Text #18
ID : 20
Format : UTF-8
Codec ID : S_TEXT/UTF8
Codec ID/Info : UTF-8 Plain Text
Duration : 2 h 9 min
Bit rate : 48 b/s
Count of elements : 1550
Stream size : 45.7 KiB (0%)
Language : Croatian
Default : No
Forced : No

Text #19
ID : 21
Format : UTF-8
Codec ID : S_TEXT/UTF8
Codec ID/Info : UTF-8 Plain Text
Duration : 2 h 9 min
Bit rate : 48 b/s
Count of elements : 1551
Stream size : 46.3 KiB (0%)
Language : Hungarian
Default : No
Forced : No

Text #20
ID : 22
Format : UTF-8
Codec ID : S_TEXT/UTF8
Codec ID/Info : UTF-8 Plain Text
Duration : 2 h 9 min
Bit rate : 49 b/s
Count of elements : 1543
Stream size : 47.3 KiB (0%)
Language : Italian
Default : No
Forced : No

Text #21
ID : 23
Format : UTF-8
Codec ID : S_TEXT/UTF8
Codec ID/Info : UTF-8 Plain Text
Duration : 2 h 9 min
Bit rate : 55 b/s
Count of elements : 1615
Stream size : 52.3 KiB (0%)
Language : Japanese
Default : No
Forced : No

Text #22
ID : 24
Format : UTF-8
Codec ID : S_TEXT/UTF8
Codec ID/Info : UTF-8 Plain Text
Duration : 2 h 9 min
Bit rate : 62 b/s
Count of elements : 1555
Stream size : 59.5 KiB (0%)
Language : Korean
Default : No
Forced : No

Text #23
ID : 25
Format : UTF-8
Codec ID : S_TEXT/UTF8
Codec ID/Info : UTF-8 Plain Text
Duration : 2 h 9 min
Bit rate : 48 b/s
Count of elements : 1550
Stream size : 46.4 KiB (0%)
Language : Malay
Default : No
Forced : No

Text #24
ID : 26
Format : UTF-8
Codec ID : S_TEXT/UTF8
Codec ID/Info : UTF-8 Plain Text
Duration : 2 h 9 min
Bit rate : 46 b/s
Count of elements : 1549
Stream size : 43.9 KiB (0%)
Language : Norwegian Bokmal
Default : No
Forced : No

Text #25
ID : 27
Format : UTF-8
Codec ID : S_TEXT/UTF8
Codec ID/Info : UTF-8 Plain Text
Duration : 2 h 9 min
Bit rate : 46 b/s
Count of elements : 1521
Stream size : 44.7 KiB (0%)
Language : Dutch
Default : No
Forced : No

Text #26
ID : 28
Format : UTF-8
Codec ID : S_TEXT/UTF8
Codec ID/Info : UTF-8 Plain Text
Duration : 2 h 9 min
Bit rate : 41 b/s
Count of elements : 1535
Stream size : 39.7 KiB (0%)
Language : Polish
Default : No
Forced : No

Text #27
ID : 29
Format : UTF-8
Codec ID : S_TEXT/UTF8
Codec ID/Info : UTF-8 Plain Text
Duration : 2 h 9 min
Bit rate : 49 b/s
Count of elements : 1548
Stream size : 47.1 KiB (0%)
Language : Portuguese
Default : No
Forced : No

Text #28
ID : 30
Format : UTF-8
Codec ID : S_TEXT/UTF8
Codec ID/Info : UTF-8 Plain Text
Duration : 2 h 9 min
Bit rate : 48 b/s
Count of elements : 1549
Stream size : 46.3 KiB (0%)
Title : Brazilian
Language : Portuguese
Default : No
Forced : No

Text #29
ID : 31
Format : UTF-8
Codec ID : S_TEXT/UTF8
Codec ID/Info : UTF-8 Plain Text
Duration : 2 h 9 min
Bit rate : 55 b/s
Count of elements : 1546
Stream size : 53.0 KiB (0%)
Language : Romanian
Default : No
Forced : No

Text #30
ID : 32
Format : UTF-8
Codec ID : S_TEXT/UTF8
Codec ID/Info : UTF-8 Plain Text
Duration : 2 h 9 min
Bit rate : 84 b/s
Count of elements : 1554
Stream size : 80.0 KiB (0%)
Language : Russian
Default : No
Forced : No

Text #31
ID : 33
Format : UTF-8
Codec ID : S_TEXT/UTF8
Codec ID/Info : UTF-8 Plain Text
Duration : 2 h 9 min
Bit rate : 48 b/s
Count of elements : 1546
Stream size : 46.5 KiB (0%)
Language : Swedish
Default : No
Forced : No

Text #32
ID : 34
Format : UTF-8
Codec ID : S_TEXT/UTF8
Codec ID/Info : UTF-8 Plain Text
Duration : 2 h 9 min
Bit rate : 125 b/s
Count of elements : 1551
Stream size : 119 KiB (0%)
Language : Thai
Default : No
Forced : No

Text #33
ID : 35
Format : UTF-8
Codec ID : S_TEXT/UTF8
Codec ID/Info : UTF-8 Plain Text
Duration : 2 h 9 min
Bit rate : 49 b/s
Count of elements : 1551
Stream size : 47.1 KiB (0%)
Language : Turkish
Default : No
Forced : No

Text #34
ID : 36
Format : UTF-8
Codec ID : S_TEXT/UTF8
Codec ID/Info : UTF-8 Plain Text
Duration : 2 h 9 min
Bit rate : 82 b/s
Count of elements : 1552
Stream size : 78.6 KiB (0%)
Language : Ukrainian
Default : No
Forced : No

Text #35
ID : 37
Format : UTF-8
Codec ID : S_TEXT/UTF8
Codec ID/Info : UTF-8 Plain Text
Duration : 2 h 9 min
Bit rate : 66 b/s
Count of elements : 1552
Stream size : 63.2 KiB (0%)
Language : Vietnamese
Default : No
Forced : No

Text #36
ID : 38
Format : UTF-8
Codec ID : S_TEXT/UTF8
Codec ID/Info : UTF-8 Plain Text
Duration : 2 h 9 min
Bit rate : 53 b/s
Count of elements : 1555
Stream size : 51.1 KiB (0%)
Title : Simplified
Language : Chinese
Default : No
Forced : No

Text #37
ID : 39
Format : UTF-8
Codec ID : S_TEXT/UTF8
Codec ID/Info : UTF-8 Plain Text
Duration : 2 h 9 min
Bit rate : 50 b/s
Count of elements : 1555
Stream size : 47.9 KiB (0%)
Title : Traditional
Language : Chinese
Default : No
Forced : No

[collapse]
Download Link(s)

Download

Direct download files get automatically deleted after a month or so. Posted on : 01/13/2022

[collapse]
Magnet Link

Magnet

Photocopier.2021.INDONESIAN.1080p.NF.WEBRip.DDP5.1.x264-TEPES-4.35 GB

[collapse]

Media information

General
Format : Matroska
Format version : Version 4
File size : 750 MiB
Duration : 2 h 10 min
Overall bit rate : 804 kb/s
Movie name : Photocopier.A.K.A.Penyalin.Cahaya.2021.INDONESIAN.720p.10bit.WEBRip.6CH.x265.HEVC

Video
ID : 1
Format : HEVC
Format/Info : High Efficiency Video Coding
Format profile : Main [email protected]@Main
Codec ID : V_MPEGH/ISO/HEVC
Duration : 2 h 10 min
Bit rate : 623 kb/s
Width : 1 280 pixels
Height : 672 pixels
Display aspect ratio : 1.905
Frame rate mode : Constant
Frame rate : 24.000 FPS
Color space : YUV
Chroma subsampling : 4:2:0
Bit depth : 10 bits
Bits/(Pixel*Frame) : 0.030
Stream size : 581 MiB (77%)
Default : Yes
Forced : No

Audio
ID : 2
Format : AAC LC SBR
Commercial name : HE-AAC
Format settings : Explicit
Codec ID : A_AAC-2
Duration : 2 h 10 min
Bit rate : 176 kb/s
Channel(s) : 6 channels
Channel layout : C L R Ls Rs LFE
Sampling rate : 48.0 kHz
Frame rate : 23.438 FPS (2048 SPF)
Compression mode : Lossy
Delay relative to video : 23 ms
Stream size : 164 MiB (22%)
Language : Indonesian
Default : Yes
Forced : No

Text #1
ID : 3
Format : UTF-8
Codec ID : S_TEXT/UTF8
Codec ID/Info : UTF-8 Plain Text
Duration : 2 h 7 min
Bit rate : 74 b/s
Count of elements : 1824
Stream size : 69.8 KiB (0%)
Title : SDH
Language : English
Default : Yes
Forced : No

Text #2
ID : 4
Format : UTF-8
Codec ID : S_TEXT/UTF8
Codec ID/Info : UTF-8 Plain Text
Duration : 1 h 22 min
Bit rate : 0 b/s
Count of elements : 5
Stream size : 67.0 Bytes (0%)
Title : Forced
Language : English
Default : No
Forced : Yes

Text #3
ID : 5
Format : UTF-8
Codec ID : S_TEXT/UTF8
Codec ID/Info : UTF-8 Plain Text
Duration : 2 h 5 min
Bit rate : 54 b/s
Count of elements : 1531
Stream size : 50.0 KiB (0%)
Language : English
Default : No
Forced : No

Text #4
ID : 6
Format : UTF-8
Codec ID : S_TEXT/UTF8
Codec ID/Info : UTF-8 Plain Text
Duration : 2 h 1 min
Bit rate : 68 b/s
Count of elements : 1585
Stream size : 61.1 KiB (0%)
Language : English
Default : No
Forced : No

Text #5
ID : 7
Format : UTF-8
Codec ID : S_TEXT/UTF8
Codec ID/Info : UTF-8 Plain Text
Duration : 2 h 9 min
Bit rate : 0 b/s
Count of elements : 23
Stream size : 528 Bytes (0%)
Title : Forced
Language : Indonesian
Default : No
Forced : No

Text #6
ID : 8
Format : UTF-8
Codec ID : S_TEXT/UTF8
Codec ID/Info : UTF-8 Plain Text
Duration : 2 h 5 min
Bit rate : 54 b/s
Count of elements : 1607
Stream size : 49.9 KiB (0%)
Language : Indonesian
Default : No
Forced : No

Text #7
ID : 9
Format : UTF-8
Codec ID : S_TEXT/UTF8
Codec ID/Info : UTF-8 Plain Text
Duration : 2 h 2 min
Bit rate : 67 b/s
Count of elements : 1753
Stream size : 61.0 KiB (0%)
Title : SDH
Language : Indonesian
Default : No
Forced : No

Text #8
ID : 10
Format : UTF-8
Codec ID : S_TEXT/UTF8
Codec ID/Info : UTF-8 Plain Text
Duration : 2 h 9 min
Bit rate : 80 b/s
Count of elements : 1555
Stream size : 76.5 KiB (0%)
Language : Arabic
Default : No
Forced : No

Text #9
ID : 11
Format : UTF-8
Codec ID : S_TEXT/UTF8
Codec ID/Info : UTF-8 Plain Text
Duration : 2 h 9 min
Bit rate : 50 b/s
Count of elements : 1549
Stream size : 48.0 KiB (0%)
Language : Czech
Default : No
Forced : No

Text #10
ID : 12
Format : UTF-8
Codec ID : S_TEXT/UTF8
Codec ID/Info : UTF-8 Plain Text
Duration : 2 h 9 min
Bit rate : 48 b/s
Count of elements : 1547
Stream size : 45.9 KiB (0%)
Language : Danish
Default : No
Forced : No

Text #11
ID : 13
Format : UTF-8
Codec ID : S_TEXT/UTF8
Codec ID/Info : UTF-8 Plain Text
Duration : 2 h 7 min
Bit rate : 53 b/s
Count of elements : 1547
Stream size : 49.6 KiB (0%)
Language : German
Default : No
Forced : No

Text #12
ID : 14
Format : UTF-8
Codec ID : S_TEXT/UTF8
Codec ID/Info : UTF-8 Plain Text
Duration : 2 h 9 min
Bit rate : 84 b/s
Count of elements : 1549
Stream size : 80.1 KiB (0%)
Language : Greek
Default : No
Forced : No

Text #13
ID : 15
Format : UTF-8
Codec ID : S_TEXT/UTF8
Codec ID/Info : UTF-8 Plain Text
Duration : 2 h 9 min
Bit rate : 49 b/s
Count of elements : 1553
Stream size : 47.5 KiB (0%)
Language : Spanish
Default : No
Forced : No

Text #14
ID : 16
Format : UTF-8
Codec ID : S_TEXT/UTF8
Codec ID/Info : UTF-8 Plain Text
Duration : 2 h 9 min
Bit rate : 50 b/s
Count of elements : 1550
Stream size : 47.7 KiB (0%)
Title : European
Language : Spanish
Default : No
Forced : No

Text #15
ID : 17
Format : UTF-8
Codec ID : S_TEXT/UTF8
Codec ID/Info : UTF-8 Plain Text
Duration : 2 h 9 min
Bit rate : 48 b/s
Count of elements : 1527
Stream size : 45.6 KiB (0%)
Language : Finnish
Default : No
Forced : No

Text #16
ID : 18
Format : UTF-8
Codec ID : S_TEXT/UTF8
Codec ID/Info : UTF-8 Plain Text
Duration : 2 h 9 min
Bit rate : 49 b/s
Count of elements : 1541
Stream size : 46.8 KiB (0%)
Language : French
Default : No
Forced : No

Text #17
ID : 19
Format : UTF-8
Codec ID : S_TEXT/UTF8
Codec ID/Info : UTF-8 Plain Text
Duration : 2 h 9 min
Bit rate : 74 b/s
Count of elements : 1548
Stream size : 70.9 KiB (0%)
Language : Hebrew
Default : No
Forced : No

Text #18
ID : 20
Format : UTF-8
Codec ID : S_TEXT/UTF8
Codec ID/Info : UTF-8 Plain Text
Duration : 2 h 9 min
Bit rate : 48 b/s
Count of elements : 1550
Stream size : 45.7 KiB (0%)
Language : Croatian
Default : No
Forced : No

Text #19
ID : 21
Format : UTF-8
Codec ID : S_TEXT/UTF8
Codec ID/Info : UTF-8 Plain Text
Duration : 2 h 9 min
Bit rate : 48 b/s
Count of elements : 1551
Stream size : 46.3 KiB (0%)
Language : Hungarian
Default : No
Forced : No

Text #20
ID : 22
Format : UTF-8
Codec ID : S_TEXT/UTF8
Codec ID/Info : UTF-8 Plain Text
Duration : 2 h 9 min
Bit rate : 49 b/s
Count of elements : 1543
Stream size : 47.3 KiB (0%)
Language : Italian
Default : No
Forced : No

Text #21
ID : 23
Format : UTF-8
Codec ID : S_TEXT/UTF8
Codec ID/Info : UTF-8 Plain Text
Duration : 2 h 9 min
Bit rate : 55 b/s
Count of elements : 1615
Stream size : 52.3 KiB (0%)
Language : Japanese
Default : No
Forced : No

Text #22
ID : 24
Format : UTF-8
Codec ID : S_TEXT/UTF8
Codec ID/Info : UTF-8 Plain Text
Duration : 2 h 9 min
Bit rate : 62 b/s
Count of elements : 1555
Stream size : 59.5 KiB (0%)
Language : Korean
Default : No
Forced : No

Text #23
ID : 25
Format : UTF-8
Codec ID : S_TEXT/UTF8
Codec ID/Info : UTF-8 Plain Text
Duration : 2 h 9 min
Bit rate : 48 b/s
Count of elements : 1550
Stream size : 46.4 KiB (0%)
Language : Malay
Default : No
Forced : No

Text #24
ID : 26
Format : UTF-8
Codec ID : S_TEXT/UTF8
Codec ID/Info : UTF-8 Plain Text
Duration : 2 h 9 min
Bit rate : 46 b/s
Count of elements : 1549
Stream size : 43.9 KiB (0%)
Language : Norwegian Bokmal
Default : No
Forced : No

Text #25
ID : 27
Format : UTF-8
Codec ID : S_TEXT/UTF8
Codec ID/Info : UTF-8 Plain Text
Duration : 2 h 9 min
Bit rate : 46 b/s
Count of elements : 1521
Stream size : 44.7 KiB (0%)
Language : Dutch
Default : No
Forced : No

Text #26
ID : 28
Format : UTF-8
Codec ID : S_TEXT/UTF8
Codec ID/Info : UTF-8 Plain Text
Duration : 2 h 9 min
Bit rate : 41 b/s
Count of elements : 1535
Stream size : 39.7 KiB (0%)
Language : Polish
Default : No
Forced : No

Text #27
ID : 29
Format : UTF-8
Codec ID : S_TEXT/UTF8
Codec ID/Info : UTF-8 Plain Text
Duration : 2 h 9 min
Bit rate : 49 b/s
Count of elements : 1548
Stream size : 47.1 KiB (0%)
Language : Portuguese
Default : No
Forced : No

Text #28
ID : 30
Format : UTF-8
Codec ID : S_TEXT/UTF8
Codec ID/Info : UTF-8 Plain Text
Duration : 2 h 9 min
Bit rate : 48 b/s
Count of elements : 1549
Stream size : 46.3 KiB (0%)
Title : Brazilian
Language : Portuguese
Default : No
Forced : No

Text #29
ID : 31
Format : UTF-8
Codec ID : S_TEXT/UTF8
Codec ID/Info : UTF-8 Plain Text
Duration : 2 h 9 min
Bit rate : 55 b/s
Count of elements : 1546
Stream size : 53.0 KiB (0%)
Language : Romanian
Default : No
Forced : No

Text #30
ID : 32
Format : UTF-8
Codec ID : S_TEXT/UTF8
Codec ID/Info : UTF-8 Plain Text
Duration : 2 h 9 min
Bit rate : 84 b/s
Count of elements : 1554
Stream size : 80.0 KiB (0%)
Language : Russian
Default : No
Forced : No

Text #31
ID : 33
Format : UTF-8
Codec ID : S_TEXT/UTF8
Codec ID/Info : UTF-8 Plain Text
Duration : 2 h 9 min
Bit rate : 48 b/s
Count of elements : 1546
Stream size : 46.5 KiB (0%)
Language : Swedish
Default : No
Forced : No

Text #32
ID : 34
Format : UTF-8
Codec ID : S_TEXT/UTF8
Codec ID/Info : UTF-8 Plain Text
Duration : 2 h 9 min
Bit rate : 125 b/s
Count of elements : 1551
Stream size : 119 KiB (0%)
Language : Thai
Default : No
Forced : No

Text #33
ID : 35
Format : UTF-8
Codec ID : S_TEXT/UTF8
Codec ID/Info : UTF-8 Plain Text
Duration : 2 h 9 min
Bit rate : 49 b/s
Count of elements : 1551
Stream size : 47.1 KiB (0%)
Language : Turkish
Default : No
Forced : No

Text #34
ID : 36
Format : UTF-8
Codec ID : S_TEXT/UTF8
Codec ID/Info : UTF-8 Plain Text
Duration : 2 h 9 min
Bit rate : 82 b/s
Count of elements : 1552
Stream size : 78.6 KiB (0%)
Language : Ukrainian
Default : No
Forced : No

Text #35
ID : 37
Format : UTF-8
Codec ID : S_TEXT/UTF8
Codec ID/Info : UTF-8 Plain Text
Duration : 2 h 9 min
Bit rate : 66 b/s
Count of elements : 1552
Stream size : 63.2 KiB (0%)
Language : Vietnamese
Default : No
Forced : No

Text #36
ID : 38
Format : UTF-8
Codec ID : S_TEXT/UTF8
Codec ID/Info : UTF-8 Plain Text
Duration : 2 h 9 min
Bit rate : 53 b/s
Count of elements : 1555
Stream size : 51.1 KiB (0%)
Title : Simplified
Language : Chinese
Default : No
Forced : No

Text #37
ID : 39
Format : UTF-8
Codec ID : S_TEXT/UTF8
Codec ID/Info : UTF-8 Plain Text
Duration : 2 h 9 min
Bit rate : 50 b/s
Count of elements : 1555
Stream size : 47.9 KiB (0%)
Title : Traditional
Language : Chinese
Default : No
Forced : No

[collapse]
Download Link(s)

Download

Direct download files get automatically deleted after a month or so. Posted on : 01/13/2022

[collapse]
Magnet Link

Magnet

Photocopier.2021.INDONESIAN.1080p.NF.WEBRip.DDP5.1.x264-TEPES-4.35 GB

[collapse]

You may also like...

error: nah :p~