Peppermint (2018)

R | 1h 41min | Action , Drama , Thriller

Five years after her husband and daughter are killed in a senseless act of violence, a woman comes back from self-imposed exile to seek revenge against those responsible and the system that let them go free.

Watch trailer

Media information

General
Format : Matroska
Format version : Version 4
File size : 2.57 GiB
Duration : 1 h 42 min
Overall bit rate : 3 599 kb/s
Frame rate : 23.976 FPS
Movie name : Peppermint.2018.1080p.10bit.BluRay.8CH.x265.HEVC

Video
ID : 1
Format : HEVC
Format/Info : High Efficiency Video Coding
Format profile : Main 10@L4@Main
Codec ID : V_MPEGH/ISO/HEVC
Duration : 1 h 42 min
Bit rate : 3 070 kb/s
Width : 1 920 pixels
Height : 804 pixels
Display aspect ratio : 2.39:1
Frame rate mode : Constant
Frame rate : 23.976 (24000/1001) FPS
Color space : YUV
Chroma subsampling : 4:2:0
Bit depth : 10 bits
Bits/(Pixel*Frame) : 0.083
Stream size : 2.19 GiB (85%)
Default : Yes
Forced : No

Audio
ID : 2
Format : AAC LC
Codec ID : A_AAC-2
Duration : 1 h 42 min
Bit rate : 529 kb/s
Channel(s) : 8 channels
Channel layout : C L R Ls Rs Lb Rb LFE
Sampling rate : 48.0 kHz
Frame rate : 46.875 FPS (1024 SPF)
Compression mode : Lossy
Delay relative to video : 20 ms
Stream size : 384 MiB (15%)
Language : English
Default : Yes
Forced : No

Text
ID : 3
Format : UTF-8
Codec ID : S_TEXT/UTF8
Codec ID/Info : UTF-8 Plain Text
Duration : 1 h 33 min
Bit rate : 55 b/s
Frame rate : 0.226 FPS
Count of elements : 1265
Stream size : 38.2 KiB (0%)
Language : English
Default : Yes
Forced : No

[collapse]
Download Link(s)

Download

Direct download files get automatically deleted after a month or so. Posted on : 06/07/2024

[collapse]

Media information

General
Format : Matroska
Format version : Version 4
File size : 1.02 GiB
Duration : 1 h 42 min
Overall bit rate : 1 433 kb/s
Frame rate : 23.976 FPS
Movie name : Peppermint.2018.720p.10bit.BluRay.8CH.x265.HEVC

Video
ID : 1
Format : HEVC
Format/Info : High Efficiency Video Coding
Format profile : Main [email protected]@Main
Codec ID : V_MPEGH/ISO/HEVC
Duration : 1 h 42 min
Bit rate : 1 174 kb/s
Width : 1 280 pixels
Height : 536 pixels
Display aspect ratio : 2.39:1
Frame rate mode : Constant
Frame rate : 23.976 (24000/1001) FPS
Color space : YUV
Chroma subsampling : 4:2:0 (Type 0)
Bit depth : 10 bits
Bits/(Pixel*Frame) : 0.071
Stream size : 857 MiB (82%)
Default : Yes
Forced : No
Color range : Limited

Audio
ID : 2
Format : AAC LC
Codec ID : A_AAC-2
Duration : 1 h 42 min
Bit rate : 257 kb/s
Channel(s) : 8 channels
Channel layout : C L R Ls Rs Lw Rw LFE
Sampling rate : 48.0 kHz
Frame rate : 46.875 FPS (1024 SPF)
Compression mode : Lossy
Delay relative to video : 20 ms
Stream size : 187 MiB (18%)
Language : English
Default : Yes
Forced : No

Text
ID : 3
Format : UTF-8
Codec ID : S_TEXT/UTF8
Codec ID/Info : UTF-8 Plain Text
Duration : 1 h 33 min
Bit rate : 55 b/s
Frame rate : 0.226 FPS
Count of elements : 1265
Stream size : 38.2 KiB (0%)
Language : English
Default : Yes
Forced : No

[collapse]
Download Link(s)

Download

Direct download files get automatically deleted after a month or so. Posted on : 06/07/2024

[collapse]

Magnet Link

Magnet

Peppermint.2018.1080p.BluRay.x265.HEVC.10bit.AAC.7.1.Tigole.QxR-2.6 GB

[collapse]

You may also like...

error: nah :p~