Papicha (2019)

1h 48min | Drama | 9 October 2019 (France)

Algiers, 1997. Terrorist wanting an Islamic and archaic state are everywhere. Women are oppressed, in a seek to take control of their bodies, clothing and public space. Young student Nedjma is passionate about making a fashion show.

Watch trailer

Media information

General
Format : Matroska
Format version : Version 4
File size : 684 MiB
Duration : 1 h 48 min
Overall bit rate : 883 kb/s
Movie name : Papicha.2019.720p.BluRay.2CH.x265.HEVC

Video
ID : 1
Format : HEVC
Format/Info : High Efficiency Video Coding
Format profile : [email protected]@Main
Codec ID : V_MPEGH/ISO/HEVC
Duration : 1 h 48 min
Bit rate : 801 kb/s
Width : 1 280 pixels
Height : 536 pixels
Display aspect ratio : 2.40:1
Frame rate mode : Constant
Frame rate : 23.976 (24000/1001) FPS
Color space : YUV
Chroma subsampling : 4:2:0
Bit depth : 8 bits
Bits/(Pixel*Frame) : 0.049
Stream size : 621 MiB (91%)
Default : Yes
Forced : No
Color range : Limited
Color primaries : BT.709
Transfer characteristics : BT.709
Matrix coefficients : BT.709

Audio
ID : 2
Format : AAC LC
Codec ID : A_AAC-2
Duration : 1 h 48 min
Bit rate : 79.5 kb/s
Channel(s) : 2 channels
Channel layout : L R
Sampling rate : 48.0 kHz
Frame rate : 46.875 FPS (1024 SPF)
Compression mode : Lossy
Delay relative to video : -21 ms
Stream size : 61.6 MiB (9%)
Title : Stereo
Language : Arabic
Default : Yes
Forced : No

Text #1
ID : 3
Format : ASS
Codec ID : S_TEXT/ASS
Duration : 1 h 43 min
Bit rate : 63 b/s
Count of elements : 1004
Compression mode : Lossless
Stream size : 48.2 KiB (0%)
Language : English
Default : Yes
Forced : Yes

Text #2
ID : 4
Format : ASS
Codec ID : S_TEXT/ASS
Duration : 1 h 42 min
Bit rate : 46 b/s
Count of elements : 689
Compression mode : Lossless
Stream size : 34.8 KiB (0%)
Language : French
Default : No
Forced : No

[collapse]
Download Link(s)

Download

Direct download files get automatically deleted after a month or so. Posted on : 04/15/2020

[collapse]
Magnet Link

Magnet

Papicha.2019.1080p.BluRay.x264-FUTURiSTiC-10.94 GB

[collapse]

You may also like...

error: nah :p~