Pan’s Labyrinth (2006)

El laberinto del fauno (original title)|R | 1h 58min | Drama, Fantasy, War | 19 January 2007 (USA)

In the Falangist Spain of 1944, the bookish young stepdaughter of a sadistic army officer escapes into an eerie but captivating fantasy world.

Watch trailer

Media information

General
Format : Matroska
Format version : Version 4
File size : 1.17 GiB
Duration : 1 h 59 min
Overall bit rate : 1 399 kb/s
Movie name : Pans.Labyrinth.2006.REMASTERED.1080p.10bit.BluRay.2CH.x265.HEVC

Video
ID : 1
Format : HEVC
Format/Info : High Efficiency Video Coding
Format profile : Main [email protected]@Main
Codec ID : V_MPEGH/ISO/HEVC
Duration : 1 h 59 min
Bit rate : 1 301 kb/s
Width : 1 854 pixels
Height : 1 036 pixels
Display aspect ratio : 16:9
Frame rate mode : Constant
Frame rate : 23.976 (24000/1001) FPS
Color space : YUV
Chroma subsampling : 4:2:0
Bit depth : 10 bits
Bits/(Pixel*Frame) : 0.028
Stream size : 1.08 GiB (93%)
Default : Yes
Forced : No
Color range : Limited
Color primaries : BT.709
Transfer characteristics : BT.709
Matrix coefficients : BT.709

Audio
ID : 2
Format : AAC LC
Codec ID : A_AAC-2
Duration : 1 h 59 min
Bit rate : 96.0 kb/s
Channel(s) : 2 channels
Channel layout : L R
Sampling rate : 48.0 kHz
Frame rate : 46.875 FPS (1024 SPF)
Compression mode : Lossy
Delay relative to video : -21 ms
Stream size : 82.1 MiB (7%)
Title : Stereo
Language : Spanish
Default : Yes
Forced : No

Text
ID : 3
Format : ASS
Codec ID : S_TEXT/ASS
Duration : 1 h 51 min
Bit rate : 53 b/s
Count of elements : 869
Compression mode : Lossless
Stream size : 43.9 KiB (0%)
Language : English
Default : Yes
Forced : Yes

[collapse]
Download Link(s)

Download

Direct download files get automatically deleted after a month or so. Posted on : 04/12/2020

[collapse]
Magnet Link

Magnet

Pans.Labyrinth.2006.REMASTERED.1080p.BluRay.x264-DEPTH- 12.01 GB

[collapse]

Media information

General
Format : Matroska
Format version : Version 4
File size : 839 MiB
Duration : 1 h 59 min
Overall bit rate : 983 kb/s
Movie name : Pans.Labyrinth.2006.REMASTERED.720p.10bit.BluRay.2CH.x265.HEVC

Video
ID : 1
Format : HEVC
Format/Info : High Efficiency Video Coding
Format profile : Main [email protected]@Main
Codec ID : V_MPEGH/ISO/HEVC
Duration : 1 h 59 min
Bit rate : 901 kb/s
Width : 1 280 pixels
Height : 694 pixels
Display aspect ratio : 16:9
Frame rate mode : Constant
Frame rate : 23.976 (24000/1001) FPS
Color space : YUV
Chroma subsampling : 4:2:0
Bit depth : 10 bits
Bits/(Pixel*Frame) : 0.042
Stream size : 769 MiB (92%)
Default : Yes
Forced : No
Color range : Limited
Color primaries : BT.709
Transfer characteristics : BT.709
Matrix coefficients : BT.709

Audio
ID : 2
Format : AAC LC
Codec ID : A_AAC-2
Duration : 1 h 59 min
Bit rate : 80.2 kb/s
Channel(s) : 2 channels
Channel layout : L R
Sampling rate : 48.0 kHz
Frame rate : 46.875 FPS (1024 SPF)
Compression mode : Lossy
Delay relative to video : -21 ms
Stream size : 68.4 MiB (8%)
Title : Stereo
Language : Spanish
Default : Yes
Forced : No

Text
ID : 3
Format : ASS
Codec ID : S_TEXT/ASS
Duration : 1 h 51 min
Bit rate : 53 b/s
Count of elements : 869
Compression mode : Lossless
Stream size : 43.9 KiB (0%)
Language : English
Default : Yes
Forced : Yes

[collapse]
Download Link(s)

Download

Direct download files get automatically deleted after a month or so. Posted on : 04/11/2020

[collapse]
Magnet Link

Magnet

Pans.Labyrinth.2006.REMASTERED.1080p.BluRay.x264-DEPTH- 12.01 GB

[collapse]

You may also like...

error: nah :p~