Pale Rider (1985)

R | 1h 55min | Drama, Western

A mysterious preacher protects a humble prospector village from a greedy mining company trying to encroach on their land.

Watch trailer

Media information

General
Format : Matroska
Format version : Version 4
File size : 2.23 GiB
Duration : 1 h 55 min
Overall bit rate : 2 755 kb/s
Frame rate : 23.976 FPS
Movie name : Pale.Rider.1985.1080p.10bit.BluRay.6CH.x265.HEVC

Video
ID : 1
Format : HEVC
Format/Info : High Efficiency Video Coding
Format profile : Main 10@L4@Main
Codec ID : V_MPEGH/ISO/HEVC
Duration : 1 h 55 min
Bit rate : 2 368 kb/s
Width : 1 908 pixels
Height : 796 pixels
Display aspect ratio : 2.40:1
Frame rate mode : Constant
Frame rate : 23.976 (24000/1001) FPS
Color space : YUV
Chroma subsampling : 4:2:0 (Type 0)
Bit depth : 10 bits
Bits/(Pixel*Frame) : 0.065
Stream size : 1.92 GiB (86%)
Default : Yes
Forced : No
Color range : Limited

Audio
ID : 2
Format : AAC LC
Codec ID : A_AAC-2
Duration : 1 h 55 min
Bit rate : 384 kb/s
Channel(s) : 6 channels
Channel layout : C L R Ls Rs LFE
Sampling rate : 48.0 kHz
Frame rate : 46.875 FPS (1024 SPF)
Compression mode : Lossy
Delay relative to video : 20 ms
Stream size : 319 MiB (14%)
Language : English
Default : Yes
Forced : No

Text
ID : 3
Format : UTF-8
Codec ID : S_TEXT/UTF8
Codec ID/Info : UTF-8 Plain Text
Duration : 1 h 51 min
Bit rate : 44 b/s
Frame rate : 0.154 FPS
Count of elements : 1033
Stream size : 36.3 KiB (0%)
Language : English
Default : Yes
Forced : No

[collapse]
Download Link(s)

Download

Direct download files get automatically deleted after a month or so. Posted on : 04/13/2024

[collapse]
Magnet Link

Magnet

Pale.Rider.1985.1080p.BluRay.x265.HEVC.10bit.AAC.5.1.Tigole.QxR-6.5 GB

[collapse]

Media information

General
Format : Matroska
Format version : Version 4
File size : 1.15 GiB
Duration : 1 h 55 min
Overall bit rate : 1 426 kb/s
Frame rate : 23.976 FPS
Movie name : Pale.Rider.1985.720p.10bit.BluRay.6CH.x265.HEVC

Video
ID : 1
Format : HEVC
Format/Info : High Efficiency Video Coding
Format profile : Main [email protected]@Main
Codec ID : V_MPEGH/ISO/HEVC
Duration : 1 h 55 min
Bit rate : 1 135 kb/s
Width : 1 280 pixels
Height : 536 pixels
Display aspect ratio : 2.40:1
Frame rate mode : Constant
Frame rate : 23.976 (24000/1001) FPS
Color space : YUV
Chroma subsampling : 4:2:0 (Type 0)
Bit depth : 10 bits
Bits/(Pixel*Frame) : 0.069
Stream size : 940 MiB (80%)
Default : Yes
Forced : No
Color range : Limited

Audio
ID : 2
Format : AAC LC
Codec ID : A_AAC-2
Duration : 1 h 55 min
Bit rate : 288 kb/s
Channel(s) : 6 channels
Channel layout : C L R Ls Rs LFE
Sampling rate : 48.0 kHz
Frame rate : 46.875 FPS (1024 SPF)
Compression mode : Lossy
Delay relative to video : 20 ms
Stream size : 239 MiB (20%)
Language : English
Default : Yes
Forced : No

Text
ID : 3
Format : UTF-8
Codec ID : S_TEXT/UTF8
Codec ID/Info : UTF-8 Plain Text
Duration : 1 h 51 min
Bit rate : 44 b/s
Frame rate : 0.154 FPS
Count of elements : 1033
Stream size : 36.3 KiB (0%)
Language : English
Default : Yes
Forced : No

[collapse]
Download Link(s)

Download

Direct download files get automatically deleted after a month or so. Posted on : 04/13/2024

[collapse]
Magnet Link

Magnet

Pale.Rider.1985.1080p.BluRay.x265.HEVC.10bit.AAC.5.1.Tigole.QxR-6.5 GB

[collapse]

You may also like...

error: nah :p~