One Bad Apple: A Hannah Swensen Mystery (2024)

TV-PG | Mystery

Hannah Swensen has been asked to teach a baking class at the college in town, but her equipment is tampered with causing an explosion that the fire department rules an accident. Soon, a colleague ends up dead and Hannah begins to put together the puzzle of the mysterious circumstances surrounding the murder. Hannah leans on her friends and family to collect the breadcrumbs of foul play and put them together, and meets a different side of law and order when Lake Eden’s prosecuting attorney Chad Norton (Webster) enters her life.

Watch trailer

Media information

General
Format : Matroska
Format version : Version 4
File size : 1.34 GiB
Duration : 1 h 24 min
Overall bit rate : 2 282 kb/s
Frame rate : 23.976 FPS
Movie name : One.Bad.Apple.A.Hannah.Swensen.Mystery.2024.1080p.10bit.WEBRip.6CH.x265.HEVC

Video
ID : 1
Format : HEVC
Format/Info : High Efficiency Video Coding
Format profile : Main 10@L4@Main
Codec ID : V_MPEGH/ISO/HEVC
Duration : 1 h 24 min
Bit rate : 2 087 kb/s
Width : 1 920 pixels
Height : 1 080 pixels
Display aspect ratio : 16:9
Frame rate mode : Constant
Frame rate : 23.976 (24000/1001) FPS
Color space : YUV
Chroma subsampling : 4:2:0 (Type 0)
Bit depth : 10 bits
Bits/(Pixel*Frame) : 0.042
Stream size : 1.23 GiB (91%)
Default : Yes
Forced : No
Color range : Limited
Color primaries : BT.709
Transfer characteristics : BT.709
Matrix coefficients : BT.709

Audio
ID : 2
Format : E-AC-3
Format/Info : Enhanced AC-3
Commercial name : Dolby Digital Plus
Codec ID : A_EAC3
Duration : 1 h 24 min
Bit rate mode : Constant
Bit rate : 192 kb/s
Channel(s) : 6 channels
Channel layout : L R C LFE Ls Rs
Sampling rate : 48.0 kHz
Frame rate : 31.250 FPS (1536 SPF)
Bit depth : 32 bits
Compression mode : Lossy
Stream size : 116 MiB (8%)
Language : English
Service kind : Complete Main
Default : Yes
Forced : No

Text #1
ID : 3
Format : UTF-8
Codec ID : S_TEXT/UTF8
Codec ID/Info : UTF-8 Plain Text
Duration : 1 h 23 min
Bit rate : 103 b/s
Frame rate : 0.404 FPS
Count of elements : 2020
Stream size : 63.5 KiB (0%)
Language : English
Default : No
Forced : No

Text #2
ID : 4
Format : UTF-8
Codec ID : S_TEXT/UTF8
Codec ID/Info : UTF-8 Plain Text
Duration : 1 h 23 min
Bit rate : 105 b/s
Frame rate : 0.416 FPS
Count of elements : 2098
Stream size : 65.1 KiB (0%)
Title : SDH
Language : English
Default : Yes
Forced : No

[collapse]
Download Link(s)

Download

Direct download files get automatically deleted after a month or so. Posted on : 04/08/2024

[collapse]
Magnet Link

Magnet

One.Bad.Apple.A.Hannah.Swensen.Mystery.2024.1080p.PCOK.WEB.DL.DDP5.1.H.264.NTb.TGx-4.7 GB

[collapse]

Media information

General
Format : Matroska
Format version : Version 4
File size : 772 MiB
Duration : 1 h 24 min
Overall bit rate : 1 281 kb/s
Frame rate : 23.976 FPS
Movie name : One.Bad.Apple.A.Hannah.Swensen.Mystery.2024.720p.10bit.WEBRip.6CH.x265.HEVC

Video
ID : 1
Format : HEVC
Format/Info : High Efficiency Video Coding
Format profile : Main [email protected]@Main
Codec ID : V_MPEGH/ISO/HEVC
Duration : 1 h 24 min
Bit rate : 1 086 kb/s
Width : 1 280 pixels
Height : 720 pixels
Display aspect ratio : 16:9
Frame rate mode : Constant
Frame rate : 23.976 (24000/1001) FPS
Color space : YUV
Chroma subsampling : 4:2:0 (Type 0)
Bit depth : 10 bits
Bits/(Pixel*Frame) : 0.049
Stream size : 655 MiB (85%)
Default : Yes
Forced : No
Color range : Limited
Color primaries : BT.709
Transfer characteristics : BT.709
Matrix coefficients : BT.709

Audio
ID : 2
Format : E-AC-3
Format/Info : Enhanced AC-3
Commercial name : Dolby Digital Plus
Codec ID : A_EAC3
Duration : 1 h 24 min
Bit rate mode : Constant
Bit rate : 192 kb/s
Channel(s) : 6 channels
Channel layout : L R C LFE Ls Rs
Sampling rate : 48.0 kHz
Frame rate : 31.250 FPS (1536 SPF)
Bit depth : 32 bits
Compression mode : Lossy
Stream size : 116 MiB (15%)
Language : English
Service kind : Complete Main
Default : Yes
Forced : No

Text #1
ID : 3
Format : UTF-8
Codec ID : S_TEXT/UTF8
Codec ID/Info : UTF-8 Plain Text
Duration : 1 h 23 min
Bit rate : 103 b/s
Frame rate : 0.404 FPS
Count of elements : 2020
Stream size : 63.5 KiB (0%)
Language : English
Default : No
Forced : No

Text #2
ID : 4
Format : UTF-8
Codec ID : S_TEXT/UTF8
Codec ID/Info : UTF-8 Plain Text
Duration : 1 h 23 min
Bit rate : 105 b/s
Frame rate : 0.416 FPS
Count of elements : 2098
Stream size : 65.1 KiB (0%)
Title : SDH
Language : English
Default : Yes
Forced : No

[collapse]
Download Link(s)

Download

Direct download files get automatically deleted after a month or so. Posted on : 04/08/2024

[collapse]
Magnet Link

Magnet

One.Bad.Apple.A.Hannah.Swensen.Mystery.2024.1080p.PCOK.WEB.DL.DDP5.1.H.264.NTb.TGx-4.7 GB

[collapse]

You may also like...

error: nah :p~