Ninja: Shadow of a Tear (2013)

R | 1h 35min | Action, Thriller

Ninjitsu master Casey is back and out for revenge when his pregnant wife is murdered.

Watch trailer

Media information

General
Format : Matroska
Format version : Version 4
File size : 1.68 GiB
Duration : 1 h 34 min
Overall bit rate : 2 546 kb/s
Frame rate : 23.976 FPS
Movie name : Ninja.Shadow.of.a.Tear.2013.1080p.10bit.BluRay.6CH.x265.HEVC

Video
ID : 1
Format : HEVC
Format/Info : High Efficiency Video Coding
Format profile : Main 10@L4@Main
Codec ID : V_MPEGH/ISO/HEVC
Duration : 1 h 34 min
Bit rate : 2 158 kb/s
Width : 1 920 pixels
Height : 1 080 pixels
Display aspect ratio : 16:9
Frame rate mode : Constant
Frame rate : 23.976 (24000/1001) FPS
Color space : YUV
Chroma subsampling : 4:2:0 (Type 0)
Bit depth : 10 bits
Bits/(Pixel*Frame) : 0.043
Stream size : 1.43 GiB (85%)
Default : Yes
Forced : No
Color range : Limited

Audio
ID : 2
Format : AAC LC
Codec ID : A_AAC-2
Duration : 1 h 34 min
Bit rate : 384 kb/s
Channel(s) : 6 channels
Channel layout : L R C Cb Lb Rb
Sampling rate : 48.0 kHz
Frame rate : 46.875 FPS (1024 SPF)
Compression mode : Lossy
Stream size : 261 MiB (15%)
Language : English
Default : Yes
Forced : No

Text
ID : 3
Format : UTF-8
Codec ID : S_TEXT/UTF8
Codec ID/Info : UTF-8 Plain Text
Duration : 1 h 26 min
Bit rate : 19 b/s
Frame rate : 0.108 FPS
Count of elements : 561
Stream size : 12.2 KiB (0%)
Language : English
Default : Yes
Forced : No

[collapse]
Download Link(s)

Download

Direct download files get automatically deleted after a month or so. Posted on : 05/02/2024

[collapse]
Magnet Link

Magnet

Ninja.Shadow.of.a.Tear.2013.1080p.BluRay.x265.HEVC.10bit.TrueHD.5.1.SAMPA.QxR-4.6 GB

[collapse]

Media information

General
Format : Matroska
Format version : Version 4
File size : 900 MiB
Duration : 1 h 34 min
Overall bit rate : 1 329 kb/s
Frame rate : 23.976 FPS
Movie name : Ninja.Shadow.of.a.Tear.2013.720p.10bit.BluRay.6CH.x265.HEVC

Video
ID : 1
Format : HEVC
Format/Info : High Efficiency Video Coding
Format profile : Main [email protected]@Main
Codec ID : V_MPEGH/ISO/HEVC
Duration : 1 h 34 min
Bit rate : 1 038 kb/s
Width : 1 280 pixels
Height : 720 pixels
Display aspect ratio : 16:9
Frame rate mode : Constant
Frame rate : 23.976 (24000/1001) FPS
Color space : YUV
Chroma subsampling : 4:2:0 (Type 0)
Bit depth : 10 bits
Bits/(Pixel*Frame) : 0.047
Stream size : 703 MiB (78%)
Default : Yes
Forced : No
Color range : Limited

Audio
ID : 2
Format : AAC LC
Codec ID : A_AAC-2
Duration : 1 h 34 min
Bit rate : 288 kb/s
Channel(s) : 6 channels
Channel layout : L R C Cb Lb Rb
Sampling rate : 48.0 kHz
Frame rate : 46.875 FPS (1024 SPF)
Compression mode : Lossy
Stream size : 195 MiB (22%)
Language : English
Default : Yes
Forced : No

Text
ID : 3
Format : UTF-8
Codec ID : S_TEXT/UTF8
Codec ID/Info : UTF-8 Plain Text
Duration : 1 h 26 min
Bit rate : 19 b/s
Frame rate : 0.108 FPS
Count of elements : 561
Stream size : 12.2 KiB (0%)
Language : English
Default : Yes
Forced : No

[collapse]
Download Link(s)

Download

Direct download files get automatically deleted after a month or so. Posted on : 05/02/2024

[collapse]
Magnet Link

Magnet

Ninja.Shadow.of.a.Tear.2013.1080p.BluRay.x265.HEVC.10bit.TrueHD.5.1.SAMPA.QxR-4.6 GB

[collapse]

You may also like...

error: nah :p~