New Life (2023)

1h 25min | Horror, Thriller

A mysterious woman on the run, and the resourceful fixer assigned to bring her in. Their two unique stories inextricably link, as the stakes of the pursuit rise to apocalyptic proportions.

Watch trailer

Media information

General
Format : Matroska
Format version : Version 4
File size : 1.24 GiB
Duration : 1 h 23 min
Overall bit rate : 2 111 kb/s
Frame rate : 24.000 FPS
Movie name : New.Life.2023.1080p.10bit.WEBRip.6CH.x265.HEVC

Video
ID : 1
Format : HEVC
Format/Info : High Efficiency Video Coding
Format profile : Main 10@L4@Main
Codec ID : V_MPEGH/ISO/HEVC
Duration : 1 h 23 min
Bit rate : 1 912 kb/s
Width : 1 920 pixels
Height : 800 pixels
Display aspect ratio : 2.40:1
Frame rate mode : Constant
Frame rate : 24.000 FPS
Color space : YUV
Chroma subsampling : 4:2:0
Bit depth : 10 bits
Bits/(Pixel*Frame) : 0.052
Stream size : 1.12 GiB (91%)
Default : Yes
Forced : No
Color range : Limited
Color primaries : BT.709
Transfer characteristics : BT.709
Matrix coefficients : BT.709

Audio
ID : 2
Format : AAC LC SBR
Commercial name : HE-AAC
Format settings : Explicit
Codec ID : A_AAC-2
Duration : 1 h 23 min
Bit rate : 197 kb/s
Channel(s) : 6 channels
Channel layout : C L R Ls Rs LFE
Sampling rate : 48.0 kHz
Frame rate : 23.438 FPS (2048 SPF)
Compression mode : Lossy
Delay relative to video : 23 ms
Stream size : 118 MiB (9%)
Language : English
Default : Yes
Forced : No

Text #1
ID : 3
Format : UTF-8
Codec ID : S_TEXT/UTF8
Codec ID/Info : UTF-8 Plain Text
Duration : 1 h 18 min
Bit rate : 39 b/s
Frame rate : 0.166 FPS
Count of elements : 780
Stream size : 22.7 KiB (0%)
Language : English
Default : No
Forced : No

Text #2
ID : 4
Format : UTF-8
Codec ID : S_TEXT/UTF8
Codec ID/Info : UTF-8 Plain Text
Duration : 1 h 23 min
Bit rate : 42 b/s
Frame rate : 0.190 FPS
Count of elements : 954
Stream size : 26.3 KiB (0%)
Title : SDH
Language : English
Default : Yes
Forced : No

[collapse]
Download Link(s)

Download

Direct download files get automatically deleted after a month or so. Posted on : 05/03/2024

[collapse]
Magnet Link

Magnet

New.Life.2024.1080p.AMZN.WEB-DL.DDP5.1.H.264-BYNDR.TGx-4.8 GB

[collapse]

Media information

General
Format : Matroska
Format version : Version 4
File size : 574 MiB
Duration : 1 h 23 min
Overall bit rate : 956 kb/s
Frame rate : 24.000 FPS
Movie name : New.Life.2023.720p.10bit.WEBRip.6CH.x265.HEVC

Video
ID : 1
Format : HEVC
Format/Info : High Efficiency Video Coding
Format profile : Main [email protected]@Main
Codec ID : V_MPEGH/ISO/HEVC
Duration : 1 h 23 min
Bit rate : 757 kb/s
Width : 1 280 pixels
Height : 536 pixels
Display aspect ratio : 2.39:1
Frame rate mode : Constant
Frame rate : 24.000 FPS
Color space : YUV
Chroma subsampling : 4:2:0
Bit depth : 10 bits
Bits/(Pixel*Frame) : 0.046
Stream size : 454 MiB (79%)
Default : Yes
Forced : No
Color range : Limited
Color primaries : BT.709
Transfer characteristics : BT.709
Matrix coefficients : BT.709

Audio
ID : 2
Format : AAC LC SBR
Commercial name : HE-AAC
Format settings : Explicit
Codec ID : A_AAC-2
Duration : 1 h 23 min
Bit rate : 197 kb/s
Channel(s) : 6 channels
Channel layout : C L R Ls Rs LFE
Sampling rate : 48.0 kHz
Frame rate : 23.438 FPS (2048 SPF)
Compression mode : Lossy
Delay relative to video : 23 ms
Stream size : 118 MiB (21%)
Language : English
Default : Yes
Forced : No

Text #1
ID : 3
Format : UTF-8
Codec ID : S_TEXT/UTF8
Codec ID/Info : UTF-8 Plain Text
Duration : 1 h 18 min
Bit rate : 39 b/s
Frame rate : 0.166 FPS
Count of elements : 780
Stream size : 22.7 KiB (0%)
Language : English
Default : No
Forced : No

Text #2
ID : 4
Format : UTF-8
Codec ID : S_TEXT/UTF8
Codec ID/Info : UTF-8 Plain Text
Duration : 1 h 23 min
Bit rate : 42 b/s
Frame rate : 0.190 FPS
Count of elements : 954
Stream size : 26.3 KiB (0%)
Title : SDH
Language : English
Default : Yes
Forced : No

[collapse]
Download Link(s)

Download

Direct download files get automatically deleted after a month or so. Posted on : 05/03/2024

[collapse]
Magnet Link

Magnet

New.Life.2024.1080p.AMZN.WEB-DL.DDP5.1.H.264-BYNDR.TGx-4.8 GB

[collapse]

You may also like...

error: nah :p~