National Treasure (2004)

PG | 2h 11min | Action, Adventure, Mystery

A historian races to find the legendary Templar Treasure before a team of mercenaries.

Watch trailer

Media information

General
Format : Matroska
Format version : Version 4
File size : 2.52 GiB
Duration : 2 h 11 min
Overall bit rate : 2 755 kb/s
Frame rate : 23.976 FPS
Movie name : National.Treasure.2004.1080p.10bit.BluRay.6CH.x265.HEVC

Video
ID : 1
Format : HEVC
Format/Info : High Efficiency Video Coding
Format profile : Main 10@L4@Main
Codec ID : V_MPEGH/ISO/HEVC
Duration : 2 h 11 min
Bit rate : 2 368 kb/s
Width : 1 920 pixels
Height : 1 080 pixels
Display aspect ratio : 16:9
Frame rate mode : Constant
Frame rate : 23.976 (24000/1001) FPS
Color space : YUV
Chroma subsampling : 4:2:0 (Type 0)
Bit depth : 10 bits
Bits/(Pixel*Frame) : 0.048
Stream size : 2.17 GiB (86%)
Default : Yes
Forced : No
Color range : Limited
Color primaries : BT.709
Transfer characteristics : BT.709
Matrix coefficients : BT.709

Audio
ID : 2
Format : AAC LC
Codec ID : A_AAC-2
Duration : 2 h 11 min
Bit rate : 384 kb/s
Channel(s) : 6 channels
Channel layout : L R C Cb Lb Rb
Sampling rate : 48.0 kHz
Frame rate : 46.875 FPS (1024 SPF)
Compression mode : Lossy
Delay relative to video : 100 ms
Stream size : 361 MiB (14%)
Language : English
Default : Yes
Forced : No

Text
ID : 3
Format : UTF-8
Codec ID : S_TEXT/UTF8
Codec ID/Info : UTF-8 Plain Text
Duration : 2 h 0 min
Bit rate : 59 b/s
Frame rate : 0.198 FPS
Count of elements : 1430
Stream size : 52.0 KiB (0%)
Language : English
Default : Yes
Forced : No

[collapse]
Download Link(s)

Download

Direct download files get automatically deleted after a month or so. Posted on : 04/29/2024

[collapse]
Magnet Link

Magnet

CHP@CHD_NATIONAL.TREASURE.2004.BD.H264-REMUX.1080P.DTS.LPCM.FourAudio-32.30 GB

[collapse]

Media information

General
Format : Matroska
Format version : Version 4
File size : 1.31 GiB
Duration : 2 h 11 min
Overall bit rate : 1 426 kb/s
Frame rate : 23.976 FPS
Movie name : National.Treasure.2004.720p.10bit.BluRay.6CH.x265.HEVC

Video
ID : 1
Format : HEVC
Format/Info : High Efficiency Video Coding
Format profile : Main [email protected]@Main
Codec ID : V_MPEGH/ISO/HEVC
Duration : 2 h 11 min
Bit rate : 1 135 kb/s
Width : 1 280 pixels
Height : 720 pixels
Display aspect ratio : 16:9
Frame rate mode : Constant
Frame rate : 23.976 (24000/1001) FPS
Color space : YUV
Chroma subsampling : 4:2:0 (Type 0)
Bit depth : 10 bits
Bits/(Pixel*Frame) : 0.051
Stream size : 1.04 GiB (80%)
Default : Yes
Forced : No
Color range : Limited
Color primaries : BT.709
Transfer characteristics : BT.709
Matrix coefficients : BT.709

Audio
ID : 2
Format : AAC LC
Codec ID : A_AAC-2
Duration : 2 h 11 min
Bit rate : 288 kb/s
Channel(s) : 6 channels
Channel layout : L R C Cb Lb Rb
Sampling rate : 48.0 kHz
Frame rate : 46.875 FPS (1024 SPF)
Compression mode : Lossy
Delay relative to video : 100 ms
Stream size : 271 MiB (20%)
Language : English
Default : Yes
Forced : No

Text
ID : 3
Format : UTF-8
Codec ID : S_TEXT/UTF8
Codec ID/Info : UTF-8 Plain Text
Duration : 2 h 0 min
Bit rate : 59 b/s
Frame rate : 0.198 FPS
Count of elements : 1430
Stream size : 52.0 KiB (0%)
Language : English
Default : Yes
Forced : No

[collapse]
Download Link(s)

Download

Direct download files get automatically deleted after a month or so. Posted on : 04/29/2024

[collapse]
Magnet Link

Magnet

CHP@CHD_NATIONAL.TREASURE.2004.BD.H264-REMUX.1080P.DTS.LPCM.FourAudio-32.30 GB

[collapse]

You may also like...

error: nah :p~